[ Сегодня идет свободное скачивание без начисления Download ]


Статистика раздачи
Нет
 
   
 
Top  
 
 
- Yanni: Live at El Morro, Puerto Rico (2012) BDRip- Оригинальное название: Yanni: Live at El Morro, Puerto Rico
Год выпуска: 2012
Выпущено: Sony Classical (Sony Music)
Жанр: New Age, instrumental
Исполнитель: Yanni, Хрисомаллис Янни
Режиссер: Ric Wake
Дата мировой премьеры: 17 апреля 2012
Дата выхода DVD релиза: 19 ноября 2012
Описание фильма:
Концерт записан 16 и 17декабря 2011года в Пуэрто-Рико, в красивом историческом месте Кастильо Сан-Фелипе дель Морро в Сан-Хуан, замок построен в 16 веке и занесён в список всемирного наследия ЮНЕСКО. Янни и его оркестр исполнил классические хиты прошлых лет и новые композиции из своего последнего альбома - Truth Touch, Voyage и Vertigo. Янни Хрисомаллис - основатель музыкальной группы «Yanni», исполняющей музыку в инструментальном стиле.
Перевод: Не требуется
Продолжительность: 01:01:06
Видеокодек: MPEG-4 AVC/H.264
Битрейт видео: ~6168 Kбит/с
Размер кадра: 1280х720
Качество видео: BDRip
Аудио #1: Английский, AC3, 448 Kбит/с (6 ch)
Аудио #2: Английский, AC3, 448 Kбит/с (2 ch)

Треклист

01. Truth of Touch
02. Vertigo
03. The End of August
04. The Rain Must Fall
05. Felitsa
06. Voyage
07. Nightingale
08. Harp Solo
09. Ode to Humanity
10. Niki Nana
11. One Man's Dream

Музыканты

Yiannis Hryssomallis & Charles Adams - drums
Benedikt Brydern - violin
Jason Carder - trumpet and flugelhorn
Yoel Del Sol - percussion
Victor Espinola - harp
Ming Freeman - keyboards
James Mattos - French horn
Sarah O’Brien - cello
Mary Simpson - violin
Dana Teboe - trombone
Gabriel Vivas - bass
Samvel Yervinyan - violin
Alexander Zhiroff - cello

MediaInfo:

Общее
Уникальный идентификатор : 173999665530482919066922563435383520457 (0x82E71DDA8956CBCD9B25A30982F47CC9)
Полное имя : E:\Yanni-Live.at.El.Morro.2012.720p.BDRip.mkv
Формат : Matroska
Версия формата : Version 4 / Version 2
Размер файла : 3,10 Гбайт
Продолжительность : 1 ч. 1 м.
Общий поток : 7207 Кбит/сек
Название фильма : Yanni-Live.at.El.Morro.2012.720p.BDRip
Дата кодирования : UTC 2010-02-22 21:41:31
Программа кодирования : mkvmerge v5.9.0 ('On The Loose') built on Dec 9 2012 15:37:01
Библиотека кодирования : libebml v1.3.0 + libmatroska v1.4.0
Видео
Идентификатор : 1
Формат : AVC
Формат/Информация : Advanced Video Codec
Профиль формата : High@L4.1
Параметр CABAC формата : Да
Параметр ReFrames формата : 8 кадров
Идентификатор кодека : V_MPEG4/ISO/AVC
Продолжительность : 1 ч. 1 м.
Битрейт : 6168 Кбит/сек
Ширина : 1280 пикселей
Высота : 720 пикселей
Соотношение сторон : 16:9
Режим частоты кадров : Постоянный
Частота кадров : 29,970 кадров/сек
Цветовое пространство : YUV
Субдискретизация насыщенности : 4:2:0
Битовая глубина : 8 бит
Тип развёртки : Прогрессивная
Бит/(Пиксели*Кадры) : 0.223
Размер потока : 2,65 Гбайт (86%)
Заголовок : Yanni - Live at El Morro, Puerto Rico 2011
Язык : English
Default : Да
Forced : Нет
Коэффициенты матрицы : BT.709
Аудио #1
Идентификатор : 2
Формат : AC-3
Формат/Информация : Audio Coding 3
Расширение режима : CM (complete main)
Параметр Endianness формата : Big
Идентификатор кодека : A_AC3
Продолжительность : 1 ч. 1 м.
Вид битрейта : Постоянный
Битрейт : 448 Кбит/сек
Каналы : 6 каналов
Расположение каналов : Front: L C R, Side: L R, LFE
Частота : 48,0 КГц
Битовая глубина : 16 бит
Метод сжатия : С потерями
Задержка видео : 13 мс.
Размер потока : 197 Мбайт (6%)
Заголовок : AC3 5.1 48KHz @ 448 kbps (16-bit)
Язык : English
Default : Да
Forced : Нет
Аудио #2
Идентификатор : 3
Формат : AC-3
Формат/Информация : Audio Coding 3
Расширение режима : CM (complete main)
Параметр Endianness формата : Big
Идентификатор кодека : A_AC3
Продолжительность : 1 ч. 1 м.
Вид битрейта : Постоянный
Битрейт : 448 Кбит/сек
Каналы : 2 канала
Расположение каналов : Front: L R
Частота : 48,0 КГц
Битовая глубина : 16 бит
Метод сжатия : С потерями
Задержка видео : 13 мс.
Размер потока : 197 Мбайт (6%)
Заголовок : AC3 2.0 48KHz @ 448 kbps (16-bit)
Язык : English
Default : Нет
Forced : Нет
Меню
00:00:00.000 : en:[-= INTRO =-]
00:01:22.000 : en:01. Truth of Touch
00:05:51.000 : en:02. Vertigo
00:11:24.000 : en:03. The End of August
00:16:37.000 : en:04. The Rain Must Fall
00:25:10.000 : en:05. Felitsa
00:29:56.000 : en:06. Voyage
00:34:45.000 : en:07. Nightingale
00:40:38.000 : en:08. Harp Solo
00:42:57.000 : en:09. Ode to Humanity
00:47:31.000 : en:10. Niki Nana
00:56:21.000 : en:11. One Man's Dream
00:59:24.000 : en:-=- credits -=-
Скриншоты:

[Цитировать]



Показать сообщения:    

Текущее время: 10-Дек 05:58

Часовой пояс: UTC + 3


Вы не можете начинать темы
Вы не можете отвечать на сообщения
Вы не можете редактировать свои сообщения
Вы не можете удалять свои сообщения
Вы не можете голосовать в опросах
Вы не можете прикреплять файлы к сообщениям
Вы не можете скачивать файлы

!ВНИМАНИЕ!
Сайт не предоставляет электронные версии произведений, а занимается лишь коллекционированием и каталогизацией ссылок, присылаемых и публикуемых на форуме нашими читателями. Если вы являетесь правообладателем какого-либо представленного материала и не желаете, чтобы ссылка на него находилась в нашем каталоге, свяжитесь с нами, и мы незамедлительно удалим ее. Файлы для обмена на трекере предоставлены пользователями сайта, и администрация не несет ответственности за их содержание. Просьба не заливать файлы, защищенные авторскими правами, а также файлы нелегального содержания!