[ Сегодня идет свободное скачивание без начисления Download ]


Статистика раздачи
Нет
 
   
 
Top  
 
 
-Rammstein: Music Videos (1995-2012) [1080p] BDRip-
Оригинальное название: Rammstein: Music Videos
Жанр: Neue Deutsche H?rte, Industrial Metal, Making Of
Продолжительность: 00:53:19+00:54:25
Год выпуска: 2012
Выпущено: Германия, Universal Music Group-Исполнители:
Till Lindemann – Lead vocals
Richard Z. Kruspe - Lead guitar, backing vocals
Paul H. Landers - Rhythm guitar, backing vocals
Christian "Flake" Lorenz - keyboards, samples, synthesizers
Oliver Riedel – bass guitar
Christoph Schneider – drums, electronic percussion, percussion
Описание:
Видео коллекция Rammstein, которая включает в себя все клипы группы а так же все видео о том как снимались эти клипы (Making of). Коллекция называется Rammstein "Videos 1995-2012"....
-Релиз от: -Качество видео: BDRip (batonchik)
Видеокодек: MPEG-4 AVC
Битрейт видео: ~ 9963 Кбит/сек (D1), 10500 Кбит/сек (D2), 24,000 fps
Размер кадра: 1920x1080p, (16:9)
Аудиокодек: DTS
Аудио #1: Немецкий (D1): 48 kHz, DTS Core: 2.0 / 48 kHz / 1509 kbps / 24-bit
Аудио #2: Немецкий (D2): 48 kHz, DTS Core: 2.0 / 48 kHz / 768 kbps / 24-bit
Субтитры: нет
Главы: есть (подписанны мною)
Треклист:

• Disc 1 •

01. Du riechst so gut
02. Seemann
03. Rammstein
04. Engel
05. Du hast
06. Du riechst so gut ‘98
07. Stripped
08. Sonne
09. Links 2 3 4
10. Ich will
11. Mutter
12. Feuer frei!
13. Mein Teil

• Disc 2 •

01. Amerika
02. Ohne dich
03. Keine Lust
04. Benzin
05. Rosenrot
06. Mann gegen Mann
07. Pussy
08. Ich tu dir weh
09. Haifisch
10. Mein Land
11. Mein Herz brennt – Piano Version
12. Mein Herz brennt

MediaInfo 0.7.61 • Disc 1 •

Общее
Уникальный идентификатор : 194581031808594486449773757907942351540 (0x9262F18E43095989A4F47E408931A2B4)
Полное имя :\RAMMSTEIN.BDRip.1080p.NNM-CLUB\RAMMSTEIN.d1.BDRip.1080p.NNM-CLUB.mkv
Формат : Matroska
Версия формата : Version 4 / Version 2
Размер файла : 4,36 Гбайт
Продолжительность : 53 м.
Общий поток : 11,7 Мбит/сек
Название фильма : RAMMSTEIN.d1.BDRip.1080p.NNM-CLUB
Дата кодирования : UTC 2010-02-22 21:41:31
Программа кодирования : mkvmerge v5.9.0 ('On The Loose') built on Dec 9 2012 15:37:01
Библиотека кодирования : libebml v1.3.0 + libmatroska v1.4.0
Видео
Идентификатор : 1
Формат : AVC
Формат/Информация : Advanced Video Codec
Профиль формата : High@L4.1
Параметр CABAC формата : Да
Параметр ReFrames формата : 4 кадра
Идентификатор кодека : V_MPEG4/ISO/AVC
Продолжительность : 53 м.
Битрейт : 9963 Кбит/сек
Номинальный битрейт : 10,6 Мбит/сек
Ширина : 1920 пикселей
Высота : 1080 пикселей
Соотношение сторон : 16:9
Режим частоты кадров : Постоянный
Частота кадров : 24,000 кадра/сек
Цветовое пространство : YUV
Субдискретизация насыщенности : 4:2:0
Битовая глубина : 8 бит
Тип развёртки : Прогрессивная
Бит/(Пиксели*Кадры) : 0.200
Размер потока : 3,71 Гбайт (85%)
Заголовок : RAMMSTEIN.d1.BDRip.1080p.NNM-CLUB
Библиотека кодирования : x264 core 129 r2230 1cffe9f
Настройки программы : cabac=1 / ref=4 / deblock=1:-1:-1 / analyse=0x3:0x133 / me=umh / subme=9 / psy=1 / psy_rd=1.00:0.15 / mixed_ref=1 / me_range=24 / chroma_me=1 / trellis=2 / 8x8dct=1 / cqm=0 / deadzone=21,11 / fast_pskip=0 / chroma_qp_offset=-3 / threads=12 / lookahead_threads=2 / sliced_threads=0 / nr=0 / decimate=1 / interlaced=0 / bluray_compat=0 / constrained_intra=0 / bframes=10 / b_pyramid=2 / b_adapt=2 / b_bias=0 / direct=3 / weightb=1 / open_gop=0 / weightp=2 / keyint=240 / keyint_min=23 / scenecut=40 / intra_refresh=0 / rc_lookahead=40 / rc=2pass / mbtree=1 / bitrate=10590 / ratetol=1.0 / qcomp=0.60 / qpmin=10 / qpmax=51 / qpstep=4 / cplxblur=20.0 / qblur=0.5 / ip_ratio=1.40 / aq=1:1.00
Язык : German
Default : Да
Forced : Нет
Аудио
Идентификатор : 2
Формат : DTS
Формат/Информация : Digital Theater Systems
Режим : 16
Параметр Endianness формата : Big
Идентификатор кодека : A_DTS
Продолжительность : 53 м.
Вид битрейта : Постоянный
Битрейт : 1509 Кбит/сек
Каналы : 2 канала
Расположение каналов : Front: L R
Частота : 48,0 КГц
Битовая глубина : 24 бит
Метод сжатия : С потерями
Размер потока : 575 Мбайт (13%)
Язык : German
Default : Да
Forced : Нет
Меню
00:00:00.000 : de:Du riechst so gut
00:04:04.541 : de:Seemann
00:08:23.291 : de:Rammstein
00:12:56.291 : de:Engel
00:17:23.375 : de:Du hast
00:21:21.458 : de:Du riechst so gut '98
00:25:48.333 : de:Stripped
00:29:44.666 : de:Sonne
00:33:57.291 : de:Links 234
00:37:35.041 : de:Ich will
00:41:42.333 : de:Mutter
00:45:31.208 : de:Feuer frei!
00:48:46.083 : de:Mein Teil

MediaInfo 0.7.61 • Disc 2 •

Общее
Уникальный идентификатор : 185571141836852536122665751185693050935 (0x8B9BB3AEEAC4764AAD0FFAB9ACAF8837)
Полное имя : \RAMMSTEIN.BDRip.1080p.NNM-CLUB\RAMMSTEIN.d2.BDRip.1080p.NNM-CLUB.mkv
Формат : Matroska
Версия формата : Version 4 / Version 2
Размер файла : 4,36 Гбайт
Продолжительность : 54 м.
Общий поток : 11,4 Мбит/сек
Название фильма : RAMMSTEIN.d2.BDRip.1080p.NNM-CLUB
Дата кодирования : UTC 2010-02-22 21:41:31
Программа кодирования : mkvmerge v5.9.0 ('On The Loose') built on Dec 9 2012 15:37:01
Библиотека кодирования : libebml v1.3.0 + libmatroska v1.4.0
Видео
Идентификатор : 1
Формат : AVC
Формат/Информация : Advanced Video Codec
Профиль формата : High@L4.1
Параметр CABAC формата : Да
Параметр ReFrames формата : 4 кадра
Идентификатор кодека : V_MPEG4/ISO/AVC
Продолжительность : 54 м.
Битрейт : 10,5 Мбит/сек
Ширина : 1920 пикселей
Высота : 1080 пикселей
Соотношение сторон : 16:9
Режим частоты кадров : Постоянный
Частота кадров : 24,000 кадра/сек
Цветовое пространство : YUV
Субдискретизация насыщенности : 4:2:0
Битовая глубина : 8 бит
Тип развёртки : Прогрессивная
Бит/(Пиксели*Кадры) : 0.210
Размер потока : 3,98 Гбайт (91%)
Заголовок : RAMMSTEIN.d2.BDRip.1080p.NNM-CLUB
Библиотека кодирования : x264 core 129 r2230 1cffe9f
Настройки программы : cabac=1 / ref=4 / deblock=1:-2:-2 / analyse=0x3:0x133 / me=umh / subme=10 / psy=1 / psy_rd=1.00:0.15 / mixed_ref=1 / me_range=24 / chroma_me=1 / trellis=2 / 8x8dct=1 / cqm=0 / deadzone=21,11 / fast_pskip=0 / chroma_qp_offset=-3 / threads=12 / lookahead_threads=2 / sliced_threads=0 / nr=0 / decimate=1 / interlaced=0 / bluray_compat=0 / constrained_intra=0 / bframes=10 / b_pyramid=2 / b_adapt=2 / b_bias=0 / direct=3 / weightb=1 / open_gop=0 / weightp=2 / keyint=240 / keyint_min=23 / scenecut=40 / intra_refresh=0 / rc_lookahead=40 / rc=2pass / mbtree=1 / bitrate=10458 / ratetol=1.0 / qcomp=0.60 / qpmin=10 / qpmax=51 / qpstep=4 / cplxblur=20.0 / qblur=0.5 / ip_ratio=1.40 / aq=1:1.00
Язык : German
Default : Да
Forced : Нет
Аудио
Идентификатор : 2
Формат : DTS
Формат/Информация : Digital Theater Systems
Режим : 16
Параметр Endianness формата : Big
Идентификатор кодека : A_DTS
Продолжительность : 54 м.
Вид битрейта : Постоянный
Битрейт : 768 Кбит/сек
Каналы : 2 канала
Расположение каналов : Front: L R
Частота : 48,0 КГц
Битовая глубина : 24 бит
Метод сжатия : С потерями
Размер потока : 299 Мбайт (7%)
Язык : German
Default : Да
Forced : Нет
Меню
00:00:00.000 : de:Amerika
00:04:19.750 : de:Ohne dich
00:10:01.583 : de:Keine Lust
00:16:02.916 : de:Benzin
00:19:41.666 : de:Rosenrot
00:23:43.999 : de:Mann gegen Mann
00:27:38.749 : de:Pussy
00:31:40.874 : de:Ich tu dir weh
00:35:39.625 : de:Haifisch
00:40:12.458 : de:Mein Land
00:44:39.583 : de:Mein Herz brennt (Piano Version)
00:49:22.708 : de:Mein Herz brennt
Скриншоты:



[Цитировать]



Показать сообщения:    

Текущее время: 01-Май 06:35

Часовой пояс: UTC + 6


Вы не можете начинать темы
Вы не можете отвечать на сообщения
Вы не можете редактировать свои сообщения
Вы не можете удалять свои сообщения
Вы не можете голосовать в опросах
Вы не можете прикреплять файлы к сообщениям
Вы не можете скачивать файлы

!ВНИМАНИЕ!
Сайт не предоставляет электронные версии произведений, а занимается лишь коллекционированием и каталогизацией ссылок, присылаемых и публикуемых на форуме нашими читателями. Если вы являетесь правообладателем какого-либо представленного материала и не желаете, чтобы ссылка на него находилась в нашем каталоге, свяжитесь с нами, и мы незамедлительно удалим ее. Файлы для обмена на трекере предоставлены пользователями сайта, и администрация не несет ответственности за их содержание. Просьба не заливать файлы, защищенные авторскими правами, а также файлы нелегального содержания!