[ Сегодня идет свободное скачивание без начисления Download ]


Статистика раздачи
Нет
 
   
 
Top  
 
 
-Rammstein: Music Videos (1995-2012) [1080p] Blu-Ray-
Оригинальное название: Rammstein: Music Videos
Жанр: Neue Deutsche H?rte, Industrial Metal, Making Of
Продолжительность: 00:53:19+00:54:25
Год выпуска: 2012
Выпущено: Германия, Universal Music Group-Исполнители: Till Lindemann – Lead vocals
Richard Z. Kruspe - Lead guitar, backing vocals
Paul H. Landers - Rhythm guitar, backing vocals
Christian "Flake" Lorenz - keyboards, samples, synthesizers
Oliver Riedel – bass guitar
Christoph Schneider – drums, electronic percussion, percussion
Описание:
Видео коллекция Rammstein, которая включает в себя все клипы группы а так же все видео о том как снимались эти клипы (Making of). Коллекция называется Rammstein "Videos 1995-2012"....
-Качество видео: Blu-Ray
Видеокодек: MPEG-4 AVC
Битрейт видео: ~33149 kbps avg (D1), 22000 kbps avg (D2), 24,000 fps
Размер кадра: 1920x1080p, (16:9)
Аудиокодек: DTS-HD MA
Аудио #1: Немецкий (D1) : 48 kHz, DTS-HD MA 5.1, 2959 kbps / 24-bit (DTS Core: 2.0 / 48 kHz / 768 kbps / 24-bit)
Аудио #2: Немецкий (D2): 48 kHz, DTS-HD MA 5.1, 2861 kbps / 24-bit (DTS Core: 2.0 / 48 kHz / 768 kbps / 24-bit)
Субтитры: английские, французкие, немецкие, португальские, испанские, русские, японские
Треклист:

• Disc 1 •

01. Du riechst so gut
02. Making of „Du riechst so gut"
03. Seemann
04. Making of „Seemann"
05. Rammstein
06. Making of „Rammstein"
07. Engel
08. Making of „Engel"
09. Du hast
10. Making of „Du hast"
11. Du riechst so gut ‘98
12. Making of „Du riechst so gut ‘98"
13. Stripped
14. Making of „Stripped"
15. Sonne
16. Making of „Sonne"
17. Links 2 3 4
18. Making of „Links 2 3 4"
19. Ich will
20. Making of „Ich will"
21. Mutter
22. Making of „Mutter"
23. Feuer frei!
24. Making of „Feuer frei!"
25. Mein Teil
26. Making of „Mein Teil"

• Disc 2 •

01. Amerika
02. Making of „Amerika"
03. Ohne dich
04. Making of „Ohne dich"
05. Keine Lust
06. Making of „Keine Lust"
07. Benzin
08. Making of „Benzin"
09. Rosenrot
10. Making of „Rosenrot"
11. Mann gegen Mann
12. Making of „Mann gegen Mann"
13. Pussy
14. Making of „Pussy"
15. Ich tu dir weh
16. Making of „Ich tu dir weh"
17. Haifisch
18. Making of „Haifisch"
19. Mein Land
20. Making of „Mein Land"
21. Mein Herz brennt – Piano Version
22. Mein Herz brennt
23. Making of „Mein Herz brennt"

BD info

Disc Title: DISK1
Disc Size: 48.058.745.217 bytes
Protection: AACS
BD-Java: No
BDInfo: 0.5.8
Notes:
BDINFO HOME:
********************
PLAYLIST: 01027.MPLS
********************
Код:
Total Video
Title Codec Length Movie Size Disc Size Bitrate Bitrate Main Audio Track Secondary Audio Track
----- ------ ------- -------------- -------------- ------- ------- ------------------ ---------------------
01027.MPLS AVC 0:53:19 15.178.543.104 48.058.745.217 37,96 33,15 DTS-HD Master 2.0 2959Kbps (96kHz/24-bit)
Код:
DISC INFO:
Disc Title: DISK1
Disc Size: 48.058.745.217 bytes
Protection: AACS
BD-Java: No
BDInfo: 0.5.8
PLAYLIST REPORT:
Name: 01027.MPLS
Length: 0:53:19.208 (h:m:s.ms)
Size: 15.178.543.104 bytes
Total Bitrate: 37,96 Mbps
VIDEO:
Codec Bitrate Description
----- ------- -----------
MPEG-4 AVC Video 33149 kbps 1080p / 24 fps / 16:9 / High Profile 4.1
AUDIO:
Codec Language Bitrate Description
----- -------- ------- -----------
DTS-HD Master Audio German 2959 kbps 2.0 / 96 kHz / 2959 kbps / 24-bit (DTS Core: 2.0 / 48 kHz / 768 kbps / 24-bit)
FILES:
Name Time In Length Size Total Bitrate
---- ------- ------ ---- -------------
00001.M2TS 0:00:00.000 0:04:04.541 1.211.129.856 39.628
00002.M2TS 0:04:04.541 0:04:18.750 1.231.878.144 38.087
00003.M2TS 0:08:23.291 0:04:33.000 1.350.942.720 39.588
00004.M2TS 0:12:56.291 0:04:27.083 1.314.465.792 39.372
00005.M2TS 0:17:23.375 0:03:58.083 1.181.263.872 39.692
00006.M2TS 0:21:21.458 0:04:26.875 1.188.734.976 35.634
00007.M2TS 0:25:48.333 0:03:56.333 1.159.612.416 39.260
00008.M2TS 0:29:44.666 0:04:12.625 1.189.165.056 37.658
00009.M2TS 0:33:57.291 0:03:37.750 1.070.358.528 39.324
00010.M2TS 0:37:35.041 0:04:07.291 1.192.673.280 38.584
00011.M2TS 0:41:42.333 0:03:48.875 802.639.872 28.055
00012.M2TS 0:45:31.208 0:03:14.875 960.768.000 39.441
00013.M2TS 0:48:46.083 0:04:33.125 1.324.910.592 38.807
CHAPTERS:
Number Time In Length Avg Video Rate Max 1-Sec Rate Max 1-Sec Time Max 5-Sec Rate Max 5-Sec Time Max 10Sec Rate Max 10Sec Time Avg Frame Size Max Frame Size Max Frame Time
------ ------- ------ -------------- -------------- -------------- -------------- -------------- -------------- -------------- -------------- -------------- --------------
1 0:00:00.000 0:04:04.541 34.519 kbps 46.418 kbps 00:03:22.750 36.900 kbps 00:03:55.125 36.059 kbps 00:01:37.500 179.789 bytes 558.499 bytes 00:03:16.041
2 0:04:04.541 0:04:18.750 33.204 kbps 46.841 kbps 00:07:10.375 37.162 kbps 00:07:10.625 36.037 kbps 00:07:19.083 172.964 bytes 473.489 bytes 00:04:53.500
3 0:08:23.291 0:04:33.000 34.572 kbps 45.133 kbps 00:10:05.416 37.185 kbps 00:09:09.041 36.362 kbps 00:10:56.083 180.090 bytes 620.756 bytes 00:12:56.291
4 0:12:56.291 0:04:27.083 34.664 kbps 45.948 kbps 00:16:21.750 37.521 kbps 00:13:12.000 36.179 kbps 00:16:20.708 180.569 bytes 640.968 bytes 00:17:16.291
5 0:17:23.375 0:03:58.083 34.611 kbps 50.184 kbps 00:17:38.750 37.324 kbps 00:17:29.541 36.522 kbps 00:17:24.541 180.298 bytes 493.323 bytes 00:17:39.291
6 0:21:21.458 0:04:26.875 30.733 kbps 46.938 kbps 00:23:38.374 37.444 kbps 00:23:48.833 36.001 kbps 00:23:16.874 160.093 bytes 644.277 bytes 00:21:38.083
7 0:25:48.333 0:03:56.333 34.503 kbps 42.871 kbps 00:29:18.333 36.701 kbps 00:28:42.416 35.980 kbps 00:28:37.416 179.737 bytes 534.834 bytes 00:27:41.458
8 0:29:44.666 0:04:12.625 32.905 kbps 46.202 kbps 00:30:00.541 37.330 kbps 00:32:10.041 36.122 kbps 00:30:00.166 171.409 bytes 612.249 bytes 00:31:31.291
9 0:33:57.291 0:03:37.750 34.576 kbps 46.014 kbps 00:34:27.083 37.321 kbps 00:34:23.166 36.144 kbps 00:36:14.166 180.117 bytes 679.836 bytes 00:37:12.625
10 0:37:35.041 0:04:07.291 33.900 kbps 48.937 kbps 00:40:58.458 38.107 kbps 00:40:54.416 36.216 kbps 00:40:25.500 176.593 bytes 672.130 bytes 00:39:01.958
11 0:41:42.333 0:03:48.875 23.841 kbps 46.019 kbps 00:42:46.583 37.142 kbps 00:42:46.583 36.146 kbps 00:42:46.458 124.169 bytes 350.776 bytes 00:43:03.624
12 0:45:31.208 0:03:14.875 34.408 kbps 47.975 kbps 00:48:02.166 37.379 kbps 00:47:58.458 36.109 kbps 00:47:31.166 179.248 bytes 607.802 bytes 00:48:19.916
13 0:48:46.083 0:04:33.125 34.185 kbps 48.431 kbps 00:52:05.041 37.561 kbps 00:52:01.083 36.305 kbps 00:51:56.125 178.104 bytes 633.654 bytes 00:49:45.416
STREAM DIAGNOSTICS:
File PID Type Codec Language Seconds Bitrate Bytes Packets
---- --- ---- ----- -------- -------------- -------------- ------------- -----
00001.M2TS 4113 (0x1011) 0x1B AVC 244,458 34.531 1.055.181.008 5.738.082
00001.M2TS 4352 (0x1100) 0x86 DTS-HD MA deu (German) 244,458 3.138 95.878.116 559.038
00002.M2TS 4113 (0x1011) 0x1B AVC 258,667 33.202 1.073.531.492 5.837.992
00002.M2TS 4352 (0x1100) 0x86 DTS-HD MA deu (German) 258,667 2.996 96.878.788 566.399
00003.M2TS 4113 (0x1011) 0x1B AVC 272,917 34.576 1.179.551.012 6.414.396
00003.M2TS 4352 (0x1100) 0x86 DTS-HD MA deu (German) 272,917 3.060 104.387.080 609.644
00004.M2TS 4113 (0x1011) 0x1B AVC 267,000 34.693 1.157.889.858 6.296.658
00004.M2TS 4352 (0x1100) 0x86 DTS-HD MA deu (German) 267,000 2.822 94.168.276 537.663
00005.M2TS 4113 (0x1011) 0x1B AVC 238,000 34.623 1.030.040.703 5.601.369
00005.M2TS 4352 (0x1100) 0x86 DTS-HD MA deu (German) 238,000 3.116 92.709.920 540.467
00006.M2TS 4113 (0x1011) 0x1B AVC 266,792 30.732 1.024.871.218 5.573.645
00006.M2TS 4352 (0x1100) 0x86 DTS-HD MA deu (German) 266,792 3.112 103.777.872 605.789
00007.M2TS 4113 (0x1011) 0x1B AVC 236,250 34.528 1.019.652.049 5.544.918
00007.M2TS 4352 (0x1100) 0x86 DTS-HD MA deu (German) 236,250 2.879 85.005.772 484.246
00008.M2TS 4113 (0x1011) 0x1B AVC 252,542 32.903 1.038.674.869 5.648.538
00008.M2TS 4352 (0x1100) 0x86 DTS-HD MA deu (German) 252,542 2.969 93.709.948 533.783
00009.M2TS 4113 (0x1011) 0x1B AVC 217,667 34.603 941.481.407 5.119.772
00009.M2TS 4352 (0x1100) 0x86 DTS-HD MA deu (German) 217,667 2.872 78.133.212 445.350
00010.M2TS 4113 (0x1011) 0x1B AVC 247,208 33.912 1.047.906.385 5.698.593
00010.M2TS 4352 (0x1100) 0x86 DTS-HD MA deu (German) 247,208 2.848 88.005.468 502.256
00011.M2TS 4113 (0x1011) 0x1B AVC 228,792 23.850 682.093.670 3.710.189
00011.M2TS 4352 (0x1100) 0x86 DTS-HD MA deu (German) 228,792 2.820 80.653.132 460.073
00012.M2TS 4113 (0x1011) 0x1B AVC 194,792 34.401 837.628.545 4.555.038
00012.M2TS 4352 (0x1100) 0x86 DTS-HD MA deu (German) 194,792 3.101 75.497.888 440.297
00013.M2TS 4113 (0x1011) 0x1B AVC 273,042 34.212 1.167.649.312 6.349.737
00013.M2TS 4352 (0x1100) 0x86 DTS-HD MA deu (German) 273,042 2.765 94.367.220 538.694
QUICK SUMMARY:
Disc Title: DISK1
Disc Size: 48.058.745.217 bytes
Protection: AACS
BD-Java: No
Playlist: 01027.MPLS
Size: 15.178.543.104 bytes
Length: 0:53:19.208
Total Bitrate: 37,96 Mbps
Video: MPEG-4 AVC Video / 33149 kbps / 1080p / 24 fps / 16:9 / High Profile 4.1
Audio: German / DTS-HD Master Audio / 2.0 / 96 kHz / 2959 kbps / 24-bit (DTS Core: 2.0 / 48 kHz / 768 kbps / 24-bit)
********************
PLAYLIST: 01026.MPLS
********************
Код:
Total Video
Title Codec Length Movie Size Disc Size Bitrate Bitrate Main Audio Track Secondary Audio Track
----- ------ ------- -------------- -------------- ------- ------- ------------------ ---------------------
01026.MPLS AVC 0:31:06 6.097.483.776 48.058.745.217 26,14 23,50 DTS-HD Master 2.0 1066Kbps (48kHz/16-bit)
Код:
DISC INFO:
Disc Title: DISK1
Disc Size: 48.058.745.217 bytes
Protection: AACS
BD-Java: No
BDInfo: 0.5.8
PLAYLIST REPORT:
Name: 01026.MPLS
Length: 0:31:06.208 (h:m:s.ms)
Size: 6.097.483.776 bytes
Total Bitrate: 26,14 Mbps
VIDEO:
Codec Bitrate Description
----- ------- -----------
MPEG-4 AVC Video 23502 kbps 1080p / 24 fps / 16:9 / High Profile 4.1
AUDIO:
Codec Language Bitrate Description
----- -------- ------- -----------
DTS-HD Master Audio German 1066 kbps 2.0 / 48 kHz / 1066 kbps / 16-bit (DTS Core: 2.0 / 48 kHz / 256 kbps / 16-bit)
SUBTITLES:
Codec Language Bitrate Description
----- -------- ------- -----------
Presentation Graphics English 41,918 kbps
Presentation Graphics French 42,726 kbps
Presentation Graphics German 44,431 kbps
Presentation Graphics Japanese 31,330 kbps
Presentation Graphics Portuguese 38,957 kbps
Presentation Graphics Russian 40,224 kbps
Presentation Graphics Spanish 40,206 kbps
Presentation Graphics Undetermined 0,000 kbps
FILES:
Name Time In Length Size Total Bitrate
---- ------- ------ ---- -------------
00039.M2TS 0:00:00.000 0:00:08.125 2.058.240 2.027
00026.M2TS 0:00:08.125 0:30:58.083 6.095.425.536 26.244
CHAPTERS:
Number Time In Length Avg Video Rate Max 1-Sec Rate Max 1-Sec Time Max 5-Sec Rate Max 5-Sec Time Max 10Sec Rate Max 10Sec Time Avg Frame Size Max Frame Size Max Frame Time
------ ------- ------ -------------- -------------- -------------- -------------- -------------- -------------- -------------- -------------- -------------- --------------
1 0:00:00.000 0:00:08.125 1.607 kbps 7.558 kbps 00:00:07.083 2.276 kbps 00:00:03.124 0 kbps 00:00:00.000 8.372 bytes 173.914 bytes 00:00:08.125
2 0:00:08.125 0:30:58.083 23.597 kbps 39.036 kbps 00:27:39.291 27.202 kbps 00:12:37.041 25.611 kbps 00:27:24.874 122.906 bytes 442.181 bytes 00:15:46.208
STREAM DIAGNOSTICS:
File PID Type Codec Language Seconds Bitrate Bytes Packets
---- --- ---- ----- -------- -------------- -------------- ------------- -----
00039.M2TS 4113 (0x1011) 0x1B AVC 8,042 1.451 1.458.648 8.016
00039.M2TS 4352 (0x1100) 0x86 DTS-HD MA deu (German) 8,042 309 310.272 2.304
00026.M2TS 4113 (0x1011) 0x1B AVC 1858,000 23.599 5.480.899.656 29.813.796
00026.M2TS 4352 (0x1100) 0x86 DTS-HD MA deu (German) 1858,000 1.069 248.330.240 1.479.612
00026.M2TS 4608 (0x1200) 0x90 PGS eng (English) 1858,000 42 9.778.395 55.452
00026.M2TS 4609 (0x1201) 0x90 PGS fra (French) 1858,000 43 9.966.841 56.590
00026.M2TS 4610 (0x1202) 0x90 PGS deu (German) 1858,000 45 10.364.724 58.644
00026.M2TS 4611 (0x1203) 0x90 PGS jpn (Japanese) 1858,000 31 7.308.569 42.020
00026.M2TS 4612 (0x1204) 0x90 PGS por (Portuguese) 1858,000 39 9.087.813 51.716
00026.M2TS 4613 (0x1205) 0x90 PGS rus (Russian) 1858,000 40 9.383.199 53.319
00026.M2TS 4614 (0x1206) 0x90 PGS spa (Spanish) 1858,000 40 9.379.107 53.271
00026.M2TS 4615 (0x1207) 0x90 PGS und (Undetermined) 1858,000 0 22 1
QUICK SUMMARY:
Disc Title: DISK1
Disc Size: 48.058.745.217 bytes
Protection: AACS
BD-Java: No
Playlist: 01026.MPLS
Size: 6.097.483.776 bytes
Length: 0:31:06.208
Total Bitrate: 26,14 Mbps
Video: MPEG-4 AVC Video / 23502 kbps / 1080p / 24 fps / 16:9 / High Profile 4.1
Audio: German / DTS-HD Master Audio / 2.0 / 48 kHz / 1066 kbps / 16-bit (DTS Core: 2.0 / 48 kHz / 256 kbps / 16-bit)
Subtitle: English / 41,918 kbps
Subtitle: French / 42,726 kbps
Subtitle: German / 44,431 kbps
Subtitle: Japanese / 31,330 kbps
Subtitle: Portuguese / 38,957 kbps
Subtitle: Russian / 40,224 kbps
Subtitle: Spanish / 40,206 kbps
Subtitle: Undetermined / 0,000 kbps
==================================================================
Disc Title: DISC2
Disc Size: 47.731.953.832 bytes
Protection: AACS
BD-Java: No
BDInfo: 0.5.8
Notes:
BDINFO HOME:
********************
PLAYLIST: 01024.MPLS
********************
Код:
Total Video
Title Codec Length Movie Size Disc Size Bitrate Bitrate Main Audio Track Secondary Audio Track
----- ------ ------- -------------- -------------- ------- ------- ------------------ ---------------------
01024.MPLS AVC 0:54:25 15.569.049.600 47.731.953.832 38,14 33,43 DTS-HD Master 2.0 2861Kbps (96kHz/24-bit)
Код:
DISC INFO:
Disc Title: DISC2
Disc Size: 47.731.953.832 bytes
Protection: AACS
BD-Java: No
BDInfo: 0.5.8
PLAYLIST REPORT:
Name: 01024.MPLS
Length: 0:54:25.916 (h:m:s.ms)
Size: 15.569.049.600 bytes
Total Bitrate: 38,14 Mbps
VIDEO:
Codec Bitrate Description
----- ------- -----------
MPEG-4 AVC Video 33434 kbps 1080p / 24 fps / 16:9 / High Profile 4.1
AUDIO:
Codec Language Bitrate Description
----- -------- ------- -----------
DTS-HD Master Audio Undetermined 2861 kbps 2.0 / 96 kHz / 2861 kbps / 24-bit (DTS Core: 2.0 / 48 kHz / 768 kbps / 24-bit)
FILES:
Name Time In Length Size Total Bitrate
---- ------- ------ ---- -------------
00001.M2TS 0:00:00.000 0:04:19.750 1.278.025.728 39.362
00002.M2TS 0:04:19.750 0:05:41.833 1.462.898.688 34.237
00003.M2TS 0:10:01.583 0:06:01.333 1.780.604.928 39.423
00004.M2TS 0:16:02.916 0:03:38.750 1.066.942.464 39.020
00005.M2TS 0:19:41.666 0:04:02.333 1.189.976.064 39.284
00006.M2TS 0:23:43.999 0:03:54.750 1.139.675.136 38.839
00007.M2TS 0:27:38.749 0:04:02.125 1.187.745.792 39.244
00008.M2TS 0:31:40.874 0:03:58.750 1.172.865.024 39.300
00009.M2TS 0:35:39.625 0:04:32.833 1.335.883.776 39.171
00010.M2TS 0:40:12.458 0:04:27.125 1.314.828.288 39.377
00011.M2TS 0:44:39.583 0:04:43.125 1.326.120.960 37.471
00012.M2TS 0:49:22.708 0:05:03.208 1.313.482.752 34.656
CHAPTERS:
Number Time In Length Avg Video Rate Max 1-Sec Rate Max 1-Sec Time Max 5-Sec Rate Max 5-Sec Time Max 10Sec Rate Max 10Sec Time Avg Frame Size Max Frame Size Max Frame Time
------ ------- ------ -------------- -------------- -------------- -------------- -------------- -------------- -------------- -------------- -------------- --------------
1 0:00:00.000 0:04:19.750 34.659 kbps 45.943 kbps 00:02:42.416 37.676 kbps 00:03:21.708 36.115 kbps 00:01:46.625 180.516 bytes 656.883 bytes 00:01:09.833
2 0:04:19.750 0:05:41.833 29.927 kbps 44.236 kbps 00:05:44.291 36.793 kbps 00:05:43.833 35.605 kbps 00:06:22.625 155.871 bytes 594.912 bytes 00:10:01.583
3 0:10:01.583 0:06:01.333 34.737 kbps 45.666 kbps 00:13:02.666 36.912 kbps 00:13:04.333 36.096 kbps 00:13:54.958 180.943 bytes 704.096 bytes 00:13:28.291
4 0:16:02.916 0:03:38.750 33.982 kbps 45.262 kbps 00:17:39.291 37.851 kbps 00:17:35.333 36.190 kbps 00:16:03.916 177.024 bytes 608.621 bytes 00:17:34.541
5 0:19:41.666 0:04:02.333 34.358 kbps 49.011 kbps 00:23:12.083 37.870 kbps 00:23:09.499 36.494 kbps 00:23:03.124 178.980 bytes 777.060 bytes 00:21:05.874
6 0:23:43.999 0:03:54.750 34.179 kbps 45.094 kbps 00:25:30.583 36.950 kbps 00:24:19.374 36.322 kbps 00:26:21.999 178.047 bytes 622.118 bytes 00:24:59.958
7 0:27:38.749 0:04:02.125 34.476 kbps 46.539 kbps 00:30:40.666 37.938 kbps 00:27:39.833 36.384 kbps 00:30:43.958 179.595 bytes 597.722 bytes 00:27:40.791
8 0:31:40.874 0:03:58.750 34.586 kbps 44.720 kbps 00:33:54.666 37.494 kbps 00:35:06.083 36.089 kbps 00:32:16.916 180.169 bytes 651.466 bytes 00:34:44.708
9 0:35:39.625 0:04:32.833 34.566 kbps 45.542 kbps 00:38:21.416 36.889 kbps 00:35:42.708 35.909 kbps 00:35:43.041 180.060 bytes 726.090 bytes 00:40:12.458
10 0:40:12.458 0:04:27.125 34.592 kbps 47.974 kbps 00:42:07.791 37.949 kbps 00:42:07.833 36.470 kbps 00:42:07.833 180.193 bytes 783.111 bytes 00:40:27.333
11 0:44:39.583 0:04:43.125 32.826 kbps 43.809 kbps 00:44:43.666 36.714 kbps 00:44:42.583 35.808 kbps 00:48:24.458 170.993 bytes 701.766 bytes 00:47:45.375
12 0:49:22.708 0:04:03.000 29.480 kbps 47.916 kbps 00:52:19.833 37.762 kbps 00:52:07.416 36.246 kbps 00:52:10.916 153.541 bytes 746.558 bytes 00:52:55.958
13 0:53:25.708 0:01:00.208 31.403 kbps 43.810 kbps 00:53:55.208 37.516 kbps 00:53:55.125 36.034 kbps 00:53:55.125 163.671 bytes 717.424 bytes 00:53:55.291
STREAM DIAGNOSTICS:
File PID Type Codec Language Seconds Bitrate Bytes Packets
---- --- ---- ----- -------- -------------- -------------- ------------- -----
00001.M2TS 4113 (0x1011) 0x1B AVC 259,667 34.670 1.125.335.899 6.119.559
00001.M2TS 4352 (0x1100) 0x86 DTS-HD MA und (Undetermined) 259,667 2.836 92.052.372 525.282
00002.M2TS 4113 (0x1011) 0x1B AVC 341,750 29.921 1.278.167.514 6.951.360
00002.M2TS 4352 (0x1100) 0x86 DTS-HD MA und (Undetermined) 341,750 2.671 114.109.476 652.709
00003.M2TS 4113 (0x1011) 0x1B AVC 361,250 34.758 1.569.547.025 8.535.164
00003.M2TS 4352 (0x1100) 0x86 DTS-HD MA und (Undetermined) 361,250 2.807 126.735.912 722.776
00004.M2TS 4113 (0x1011) 0x1B AVC 218,667 33.995 929.201.520 5.053.047
00004.M2TS 4352 (0x1100) 0x86 DTS-HD MA und (Undetermined) 218,667 3.104 84.840.672 494.214
00005.M2TS 4113 (0x1011) 0x1B AVC 242,250 34.370 1.040.768.237 5.659.715
00005.M2TS 4352 (0x1100) 0x86 DTS-HD MA und (Undetermined) 242,250 2.979 90.204.276 527.315
00006.M2TS 4113 (0x1011) 0x1B AVC 234,667 34.186 1.002.788.812 5.453.198
00006.M2TS 4352 (0x1100) 0x86 DTS-HD MA und (Undetermined) 234,667 2.821 82.745.464 472.184
00007.M2TS 4113 (0x1011) 0x1B AVC 242,042 34.483 1.043.291.448 5.673.430
00007.M2TS 4352 (0x1100) 0x86 DTS-HD MA und (Undetermined) 242,042 2.914 88.151.912 501.986
00008.M2TS 4113 (0x1011) 0x1B AVC 238,667 34.600 1.032.225.560 5.613.279
00008.M2TS 4352 (0x1100) 0x86 DTS-HD MA und (Undetermined) 238,667 2.848 84.973.896 484.791
00009.M2TS 4113 (0x1011) 0x1B AVC 272,750 34.563 1.178.397.287 6.408.134
00009.M2TS 4352 (0x1100) 0x86 DTS-HD MA und (Undetermined) 272,750 2.759 94.073.820 537.463
00010.M2TS 4113 (0x1011) 0x1B AVC 267,042 34.623 1.155.706.865 6.284.804
00010.M2TS 4352 (0x1100) 0x86 DTS-HD MA und (Undetermined) 267,042 2.899 96.766.340 551.385
00011.M2TS 4113 (0x1011) 0x1B AVC 283,042 32.837 1.161.781.726 6.318.023
00011.M2TS 4352 (0x1100) 0x86 DTS-HD MA und (Undetermined) 283,042 2.779 98.322.320 576.244
00012.M2TS 4113 (0x1011) 0x1B AVC 303,125 29.870 1.131.791.300 6.155.268
00012.M2TS 4352 (0x1100) 0x86 DTS-HD MA und (Undetermined) 303,125 3.034 114.961.220 672.155
QUICK SUMMARY:
Disc Title: DISC2
Disc Size: 47.731.953.832 bytes
Protection: AACS
BD-Java: No
Playlist: 01024.MPLS
Size: 15.569.049.600 bytes
Length: 0:54:25.916
Total Bitrate: 38,14 Mbps
Video: MPEG-4 AVC Video / 33434 kbps / 1080p / 24 fps / 16:9 / High Profile 4.1
Audio: Undetermined / DTS-HD Master Audio / 2.0 / 96 kHz / 2861 kbps / 24-bit (DTS Core: 2.0 / 48 kHz / 768 kbps / 24-bit)
********************
PLAYLIST: 01022.MPLS
********************
Код:
Total Video
Title Codec Length Movie Size Disc Size Bitrate Bitrate Main Audio Track Secondary Audio Track
----- ------ ------- -------------- -------------- ------- ------- ------------------ ---------------------
01022.MPLS AVC 0:29:02 5.772.042.240 47.731.953.832 26,50 23,88 DTS-HD Master 2.0 1001Kbps (48kHz/16-bit)
Код:
DISC INFO:
Disc Title: DISC2
Disc Size: 47.731.953.832 bytes
Protection: AACS
BD-Java: No
BDInfo: 0.5.8
PLAYLIST REPORT:
Name: 01022.MPLS
Length: 0:29:02.583 (h:m:s.ms)
Size: 5.772.042.240 bytes
Total Bitrate: 26,50 Mbps
VIDEO:
Codec Bitrate Description
----- ------- -----------
MPEG-4 AVC Video 23878 kbps 1080p / 24 fps / 16:9 / High Profile 4.1
AUDIO:
Codec Language Bitrate Description
----- -------- ------- -----------
DTS-HD Master Audio Undetermined 1001 kbps 2.0 / 48 kHz / 1001 kbps / 16-bit (DTS Core: 2.0 / 48 kHz / 256 kbps / 16-bit)
SUBTITLES:
Codec Language Bitrate Description
----- -------- ------- -----------
Presentation Graphics English 34,464 kbps
Presentation Graphics French 46,284 kbps
Presentation Graphics German 49,840 kbps
Presentation Graphics Japanese 40,619 kbps
Presentation Graphics Portuguese 41,612 kbps
Presentation Graphics Russian 46,122 kbps
Presentation Graphics Spanish 43,649 kbps
Presentation Graphics Undetermined 10,765 kbps
FILES:
Name Time In Length Size Total Bitrate
---- ------- ------ ---- -------------
00033.M2TS 0:00:00.000 0:00:08.041 1.302.528 1.296
00022.M2TS 0:00:08.041 0:28:54.541 5.770.739.712 26.616
CHAPTERS:
Number Time In Length Avg Video Rate Max 1-Sec Rate Max 1-Sec Time Max 5-Sec Rate Max 5-Sec Time Max 10Sec Rate Max 10Sec Time Avg Frame Size Max Frame Size Max Frame Time
------ ------- ------ -------------- -------------- -------------- -------------- -------------- -------------- -------------- -------------- -------------- --------------
1 0:00:00.000 0:00:08.041 764 kbps 1.487 kbps 00:00:03.458 969 kbps 00:00:02.333 0 kbps 00:00:00.000 3.977 bytes 90.266 bytes 00:00:03.500
2 0:00:08.041 0:28:54.541 23.985 kbps 36.213 kbps 00:01:30.041 27.435 kbps 00:24:10.500 25.287 kbps 00:24:12.125 124.926 bytes 580.284 bytes 00:22:26.083
STREAM DIAGNOSTICS:
File PID Type Codec Language Seconds Bitrate Bytes Packets
---- --- ---- ----- -------- -------------- -------------- ------------- -----
00033.M2TS 4113 (0x1011) 0x1B AVC 7,958 742 737.722 4.091
00033.M2TS 4352 (0x1100) 0x86 DTS-HD MA und (Undetermined) 7,958 312 310.272 2.304
00022.M2TS 4113 (0x1011) 0x1B AVC 1734,458 23.987 5.200.463.897 28.287.798
00022.M2TS 4352 (0x1100) 0x86 DTS-HD MA und (Undetermined) 1734,458 1.004 217.630.128 1.303.915
00022.M2TS 4608 (0x1200) 0x90 PGS eng (English) 1734,458 35 7.507.037 42.557
00022.M2TS 4609 (0x1201) 0x90 PGS fra (French) 1734,458 47 10.081.707 57.072
00022.M2TS 4610 (0x1202) 0x90 PGS deu (German) 1734,458 50 10.856.190 61.380
00022.M2TS 4611 (0x1203) 0x90 PGS jpn (Japanese) 1734,458 41 8.847.688 50.361
00022.M2TS 4612 (0x1204) 0x90 PGS por (Portuguese) 1734,458 42 9.064.130 51.539
00022.M2TS 4613 (0x1205) 0x90 PGS rus (Russian) 1734,458 46 10.046.462 57.001
00022.M2TS 4614 (0x1206) 0x90 PGS spa (Spanish) 1734,458 44 9.507.770 53.941
00022.M2TS 4615 (0x1207) 0x90 PGS und (Undetermined) 1734,458 11 2.344.960 13.276
QUICK SUMMARY:
Disc Title: DISC2
Disc Size: 47.731.953.832 bytes
Protection: AACS
BD-Java: No
Playlist: 01022.MPLS
Size: 5.772.042.240 bytes
Length: 0:29:02.583
Total Bitrate: 26,50 Mbps
Video: MPEG-4 AVC Video / 23878 kbps / 1080p / 24 fps / 16:9 / High Profile 4.1
Audio: Undetermined / DTS-HD Master Audio / 2.0 / 48 kHz / 1001 kbps / 16-bit (DTS Core: 2.0 / 48 kHz / 256 kbps / 16-bit)
Subtitle: English / 34,464 kbps
Subtitle: French / 46,284 kbps
Subtitle: German / 49,840 kbps
Subtitle: Japanese / 40,619 kbps
Subtitle: Portuguese / 41,612 kbps
Subtitle: Russian / 46,122 kbps
Subtitle: Spanish / 43,649 kbps
Subtitle: Undetermined / 10,765 kbps

Скриншоты меню:

Скриншоты:

[Цитировать]



Показать сообщения:    

Текущее время: 08-Дек 14:52

Часовой пояс: UTC + 3


Вы не можете начинать темы
Вы не можете отвечать на сообщения
Вы не можете редактировать свои сообщения
Вы не можете удалять свои сообщения
Вы не можете голосовать в опросах
Вы не можете прикреплять файлы к сообщениям
Вы не можете скачивать файлы

!ВНИМАНИЕ!
Сайт не предоставляет электронные версии произведений, а занимается лишь коллекционированием и каталогизацией ссылок, присылаемых и публикуемых на форуме нашими читателями. Если вы являетесь правообладателем какого-либо представленного материала и не желаете, чтобы ссылка на него находилась в нашем каталоге, свяжитесь с нами, и мы незамедлительно удалим ее. Файлы для обмена на трекере предоставлены пользователями сайта, и администрация не несет ответственности за их содержание. Просьба не заливать файлы, защищенные авторскими правами, а также файлы нелегального содержания!