[ Сегодня идет свободное скачивание без начисления Download ]


Статистика раздачи
Качаю: [ 1 ]
Скачал: [ 2 ]
 
   
 
Top  
 
 
Расскажи мне, как я умру / Tell Me How I Die Информация о фильме
Название: Расскажи мне, как я умру
Оригинальное название: Tell Me How I Die
Год выхода: 2016
Жанр: ужасы
Режиссер: Донн Дж. Виола
В ролях: Нэйтан Кресс, Вирджиния Гарднер, Кирби Блисс Блэнтон, Райан Хига, Марк Фурз, Итан Пек, Уильям Мапотер, Марк Ролстон, Марни Алексенбург, Кристофер Аллен
Слоган: «Зная свою судьбу можешь стать настоящим убийцей»
О фильме: Когда студенты колледжа соглашаются принять участие в загадочном эксперименте, а добрый доктор скрывает от них информацию о возможных побочных эффектах — жди беды. И главные герои ужастика испытали последствия контролируемого употребления наркотиков на своей шкуре.
Дело в том, что счастливчики, побывавшие в затяжном трипе, начали видеть галлюцинации со сценами своей смерти. Поначалу все уверены, что это просто побочные эффекты. Но потом приходит осознание того, что испытуемые умудрились заглянуть туда, куда простым смертным смотреть не следует.

Страна: США / Base Station, Big Block Media Holdings, Culprit Creative, Supergravity Pictures
Продолжительность: 01:47:12
Перевод: Любительский (одноголосый закадровый) [Хихикающий доктор]
Файл
Качество: WEB-DL 1080p
Формат: MKV
Видео: AVC, 4425 Kb/s, 1920x792
Звук: Russian: AC3, 192 Kb/s (2 ch), English: AC3, 384 Kb/s (6 ch)
Субтитры: English
Дополнительно: Сохранены оригинальные главы (чаптеры)

MediaInfo:

Format : Matroska
Format version : Version 4 / Version 2
File size : 3.82 GiB
Duration : 1 h 47 min
Overall bit rate : 5 099 kb/s
Movie name : Rip by basma4i
Encoded date : UTC 2016-10-09 02:22:07
Writing application : mkvmerge v9.3.1 ('Mask Machine') 64bit
Writing library : libebml v1.3.4 + libmatroska v1.4.5
Cover : Yes
Attachments : cover_land.jpg / small_cover.jpg / small_cover_land.jpg / cover.jpg
Video
ID : 1
Format : AVC
Format/Info : Advanced Video Codec
Format profile : High@L4
Format settings, CABAC : Yes
Format settings, ReFrames : 5 frames
Codec ID : V_MPEG4/ISO/AVC
Duration : 1 h 47 min
Bit rate : 4 521 kb/s
Width : 1 920 pixels
Height : 792 pixels
Display aspect ratio : 2.40:1
Frame rate mode : Constant
Frame rate : 23.976 (24000/1001) FPS
Color space : YUV
Chroma subsampling : 4:2:0
Bit depth : 8 bits
Scan type : Progressive
Bits/(Pixel*Frame) : 0.124
Stream size : 3.39 GiB (89%)
Title : Rip by basma4i
Language : English
Default : Yes
Forced : No
Color range : Limited
Color primaries : BT.709
Transfer characteristics : BT.709
Matrix coefficients : BT.709
Audio #1
ID : 2
Format : AC-3
Format/Info : Audio Coding 3
Mode extension : CM (complete main)
Format settings, Endianness : Big
Codec ID : A_AC3
Duration : 1 h 47 min
Bit rate mode : Constant
Bit rate : 192 kb/s
Channel(s) : 2 channels
Channel positions : Front: L R
Sampling rate : 48.0 kHz
Frame rate : 31.250 FPS (1536 spf)
Compression mode : Lossy
Stream size : 147 MiB (4%)
Title : xixidok
Language : Russian
Default : No
Forced : No
Audio #2
ID : 3
Format : AC-3
Format/Info : Audio Coding 3
Mode extension : CM (complete main)
Format settings, Endianness : Big
Codec ID : A_AC3
Duration : 1 h 47 min
Bit rate mode : Constant
Bit rate : 384 kb/s
Channel(s) : 6 channels
Channel positions : Front: L C R, Side: L R, LFE
Sampling rate : 48.0 kHz
Frame rate : 31.250 FPS (1536 spf)
Compression mode : Lossy
Stream size : 294 MiB (8%)
Title : Original
Language : English
Default : Yes
Forced : No
Text
ID : 4
Format : UTF-8
Codec ID : S_TEXT/UTF8
Codec ID/Info : UTF-8 Plain Text
Duration : 1 h 40 min
Bit rate : 46 b/s
Count of elements : 1247
Stream size : 33.8 KiB (0%)
Language : English
Default : Yes
Forced : No
Menu
00:00:00.000 : en:1
00:10:13.530 : en:2
00:20:47.413 : en:3
00:31:32.808 : en:4
00:41:52.260 : en:5
00:50:36.617 : en:6
01:00:58.905 : en:7
01:09:35.254 : en:8
01:18:14.106 : en:9
01:27:50.307 : en:10
01:37:25.090 : en:11
01:43:28.286 : en:12

Скриншоты

[Цитировать]

Топик был перенесен из форума Новинки кинопроката в форум Новинки кинопроката (HD Video)
Scorpio



Показать сообщения:    

Текущее время: 02-Дек 21:08

Часовой пояс: UTC + 3


Вы не можете начинать темы
Вы не можете отвечать на сообщения
Вы не можете редактировать свои сообщения
Вы не можете удалять свои сообщения
Вы не можете голосовать в опросах
Вы не можете прикреплять файлы к сообщениям
Вы не можете скачивать файлы

!ВНИМАНИЕ!
Сайт не предоставляет электронные версии произведений, а занимается лишь коллекционированием и каталогизацией ссылок, присылаемых и публикуемых на форуме нашими читателями. Если вы являетесь правообладателем какого-либо представленного материала и не желаете, чтобы ссылка на него находилась в нашем каталоге, свяжитесь с нами, и мы незамедлительно удалим ее. Файлы для обмена на трекере предоставлены пользователями сайта, и администрация не несет ответственности за их содержание. Просьба не заливать файлы, защищенные авторскими правами, а также файлы нелегального содержания!