[ Today is free to download without increasing Download ]

DL-List and Torrent activity
Капля / The Blob Информация о фильме
Название: Капля
Оригинальное название: The Blob
Год выхода: 1988
Жанр: Ужасы, фантастика
Режиссер: Чак Рассел / Chuck Russell
В ролях: Кевин Диллон, Шоуни Смит, Донован Лейтч мл., Джеффри ДеМанн, Кэнди Кларк, Джо Сенека, Дель Клоуз, Пол МакКрейн, Шэрон Спелман, Биу Биллингсли...
О фильме:
Роковой метеорит принес на землю страшное вещество. Жидкая плазма пожирает все на своем пути, и чем больше жертв оказывается в ее бездонных недрах, тем больше становится этот сгусток черной энергии, несущей смерть.

Страна: США
Студия: Palisades California Inc. TriStar Pictures
Продолжительность: 01:34:59
Перевод: Профессиональный (многоголосый, закадровый) - ТК Россия
Кодек: XviD
Качество: HDRip
Видео: 656x352 (1.85:1), 23.976 fps, XviD build 73 ~959 kbps avg, 0.17 bit/pixel
Звук: 48 kHz, MPEG Layer 3, 2 ch, ~128.00 kbps avg
Субтитры: Отсутствуют


Complete name : E:Изготовление рипаKaplja.HDRip.by shkiper.avi
Format : AVI
Format/Info : Audio Video Interleave
File size : 745 MiB
Duration : 1h 34mn
Overall bit rate : 1 097 Kbps
Writing application : VirtualDubMod | www.virtualdub-fr.org || (build 2550/release)
Writing library : VirtualDubMod build 2550/release
ID : 0
Format : MPEG-4 Visual
Format profile : Advanced Simple@L5
Format settings, BVOP : 1
Format settings, QPel : No
Format settings, GMC : No warppoints
Format settings, Matrix : Custom
Codec ID : XVID
Codec ID/Hint : XviD
Duration : 1h 34mn
Bit rate : 960 Kbps
Width : 656 pixels
Height : 352 pixels
Display aspect ratio : 1.85:1
Frame rate : 23.976 (23976/1000) fps
Color space : YUV
Chroma subsampling : 4:2:0
Bit depth : 8 bits
Scan type : Progressive
Compression mode : Lossy
Bits/(Pixel*Frame) : 0.173
Stream size : 652 MiB (87%)
Writing library : XviD 73
ID : 1
Format : MPEG Audio
Format version : Version 1
Format profile : Layer 3
Codec ID : 55
Codec ID/Hint : MP3
Duration : 1h 34mn
Bit rate mode : Constant
Bit rate : 128 Kbps
Channel(s) : 2 channels
Sampling rate : 48.0 KHz
Compression mode : Lossy
Stream size : 87.0 MiB (12%)
Alignment : Aligned on interleaves
Interleave, duration : 42 ms (1.00 video frame)
Interleave, preload duration : 504 ms
Writing library : LAME3.99r
Encoding settings : -m s -V 4 -q 2 -lowpass 17 -b 128



Топик был перенесен из форума Ужасы в форум Классика мирового кинематографа

Display posts:    

Current time is: 28-Oct 11:24

All times are UTC + 3

You cannot post new topics in this forum
You cannot reply to topics in this forum
You cannot edit your posts in this forum
You cannot delete your posts in this forum
You cannot vote in polls in this forum
You cannot attach files in this forum
You cannot download files in this forum

The site does not give electronic versions of products, and is engaged only in a collecting and cataloguing of the references sent and published at a forum by our readers. If you are the legal owner of any submitted material and do not wish that the reference to it was in our catalogue, contact us and we shall immediately remove her. Files for an exchange on tracker are given by users of a site, and the administration does not bear the responsibility for their maintenance. The request to not fill in the files protected by copyrights, and also files of the illegal maintenance!