[ Сегодня идет свободное скачивание без начисления Download ]


Статистика раздачи
Нет
 
   
 
Top  
 
 
-Глюк' OZA - Nowбой (2011) BDRemux- Русское название: Глюк' OZA - Nowбой
Год выпуска: 2011
Жанр: Pop
Описание фильма:
Новый грандиозный проект певицы Глюк'озы! Живой концерт "NOWБОЙ" на диске Blue Ray! Программа концерта содержит, как старые, любимые всеми хиты певицы, так и новые песни. "Невеста", "Снег идёт", "Шуга" и многие другие знаковые композиции порадуют зрителя вместе с новыми, но уже полюбившимися хитами "Взмах", "Вот такая любовь", "Следы слёз" и многими другими. Каждый номер - это яркое сочетание световых эффектов, нереальных костюмов, хореографии и великолепного звука. Современное звучание и высокотехнологичная съёмка концерта позволит зрителю побывать на живом выступлении Глюк'озы не выходя из дома!
Продолжительность: 01:38:14
Перевод: Отсутствует
Видеокодек: MPEG-4 AVC/H.264
Битрейт видео: ~22300 kbps
Размер кадра: 1920x1080
Качество видео: BDRemux
Аудио: LPCM 2,0 / 48 kHz / 1536 kbps / 16-bit

Треклист:

01. Intro
02. Невеста
03. Снег идет
04. Пипец
05. Дочка
06. Москва
07. Бабочки
08. Жениха хотела
09. Вот такая любовь
10. Танцуй, Россия!
11. Карина
12. Аста ла виста
13. Ля мур
14. Выстрел в спину
15. Взмах
16. Малыш
17. Шуга
18. Глюк'Ozа Ностра
19. Швайне
20. Kozanostra
21. I've Just Committed A Crime
22. Goodbye
23. High Sign
24. Maybe
25. Sсhweine
26. Sugar

MediaInfo:

Общее
Идентификатор : 0 (0x0)
Полное имя : X:\Глюк' OZA - Nowбой (2011) BDRemux 1080p.m2ts
Формат : BDAV
Формат/Информация : Blu-ray Video
Размер файла : 17,1 Гбайт
Продолжительность : 1 ч. 38 м.
Режим общего битрейта : Переменный
Общий поток : 24,9 Мбит/сек
Максимальный общий битрейт : 48,0 Мбит/сек
Видео
Идентификатор : 4113 (0x1011)
Идентификатор меню : 1 (0x1)
Формат : AVC
Формат/Информация : Advanced Video Codec
Профиль формата : High@L4.1
Параметр CABAC формата : Да
Параметр ReFrames формата : 4 кадра
Идентификатор кодека : 27
Продолжительность : 1 ч. 38 м.
Вид битрейта : Переменный
Битрейт : 22,3 Мбит/сек
Максимальный битрейт : 38,0 Мбит/сек
Ширина : 1920 пикселей
Высота : 1080 пикселей
Соотношение сторон : 16:9
Частота кадров : 25,000 кадров/сек
Стандарт вещания : PAL
Цветовое пространство : YUV
Субдискретизация насыщенности : 4:2:0
Битовая глубина : 8 бит
Тип развёртки : MBAFF
Бит/(Пиксели*Кадры) : 0.431
Размер потока : 15,3 Гбайт (90%)
Основные цвета : BT.709
Характеристики трансфера : BT.709
Коэффициенты матрицы : BT.709
Аудио
Идентификатор : 4352 (0x1100)
Идентификатор меню : 1 (0x1)
Формат : PCM
Параметр Endianness формата : Big
Параметр Sign формата : Signed
Режим смешивания : Blu-ray
Идентификатор кодека : 128
Продолжительность : 1 ч. 38 м.
Вид битрейта : Постоянный
Битрейт : 1536 Кбит/сек
Каналы : 2 канала
Расположение каналов : Front: L R
Частота : 48,0 КГц
Битовая глубина : 16 бит
Размер потока : 1,05 Гбайт (6%)
Скриншоты:

[Цитировать]



Показать сообщения:    

Текущее время: 11-Дек 01:29

Часовой пояс: UTC + 3


Вы не можете начинать темы
Вы не можете отвечать на сообщения
Вы не можете редактировать свои сообщения
Вы не можете удалять свои сообщения
Вы не можете голосовать в опросах
Вы не можете прикреплять файлы к сообщениям
Вы не можете скачивать файлы

!ВНИМАНИЕ!
Сайт не предоставляет электронные версии произведений, а занимается лишь коллекционированием и каталогизацией ссылок, присылаемых и публикуемых на форуме нашими читателями. Если вы являетесь правообладателем какого-либо представленного материала и не желаете, чтобы ссылка на него находилась в нашем каталоге, свяжитесь с нами, и мы незамедлительно удалим ее. Файлы для обмена на трекере предоставлены пользователями сайта, и администрация не несет ответственности за их содержание. Просьба не заливать файлы, защищенные авторскими правами, а также файлы нелегального содержания!