[ Сегодня идет свободное скачивание без начисления Download ]


Статистика раздачи
Скачал: [ 1 ]
 
   
 
Top  
 
 
Изгой-один: Звёздные войны. Истории / Rogue One: A Star Wars Story (2016) WEBRip - Производство: США / Lucasfilm Ltd.
Жанр: фантастика, боевик, приключения
Режиссер: Гарет Эдвардс
Продюсер: Саймон Эмануэл, Кэтлин Кеннеди, Эллисон Шермур
Актеры: Фелисити Джонс, Мадс Миккельсен, Алан Тьюдик, Донни Йен, Бен Мендельсон, Форест Уитакер, Диего Луна, Джонатан Арис, Риз Ахмед, Артур Л. Бернштейн
Описание:
Фильм рассказывает о событиях, которые предшествовали четвёртому эпизоду «Звёздных Войн». Узнав о том, что Империя построила самую совершенную боевую станцию, способную уничтожать целые планеты, Альянс Повстанцев собирает особый отряд под руководством бывшей преступницы Джин Эрсо, целью которого является чертежи совершенного оружия Империи.
Несмотря на то, что миссия кажется самоубийственной, отряд готов рискнуть всем ради победы. Однако расстановка сил резко меняется, когда Император посылает за ними своего самого страшного и могущественного приспешника — Дарта Вейдера, чьё присутствие гарантирует как минимум одно — отряду повстанцев не суждено вернуться со своей миссии живыми.

Дата мировой премьеры: 14 декабря 2016
Дата российской премьеры: 15 декабря 2016
Продолжительность: 00:02:06
Качество видео: WEBRip
Перевод: Отсутствует
Видео: AVC/H.264, 1920x816 (2,35:1), ~9514 Kbps
Аудио: AAC, 2 ch, 124 Kbps м

Mediainfo:

Формат : Matroska
Версия формата : Version 4 / Version 2
Размер файла : 145 Мбайт
Продолжительность : 2 м. 6 с.
Общий поток : 9641 Кбит/сек
Дата кодирования : UTC 2016-10-09 14:11:46
Программа кодирования : mkvmerge v9.4.2 ('So High') 64bit
Библиотека кодирования : libebml v1.3.4 + libmatroska v1.4.5
Видео
Идентификатор : 1
Формат : AVC
Формат/Информация : Advanced Video Codec
Профиль формата : Main@L4
Параметр CABAC формата : Нет
Параметр ReFrames формата : 2 кадра
Идентификатор кодека : V_MPEG4/ISO/AVC
Продолжительность : 2 м. 6 с.
Битрейт : 9514 Кбит/сек
Ширина : 1920 пикселей
Высота : 816 пикселей
Соотношение сторон : 2,35:1
Режим частоты кадров : Постоянный
Частота кадров : 23,976 кадра/сек
Цветовое пространство : YUV
Субдискретизация насыщенности : 4:2:0
Битовая глубина : 8 бит
Тип развёртки : Прогрессивная
Бит/(Пиксели*Кадры) : 0.253
Размер потока : 143 Мбайт (99%)
Default : Да
Forced : Нет
Цветовой диапазон : Limited
Основные цвета : BT.709
Характеристики трансфера : BT.709
Коэффициенты матрицы : BT.709
Аудио
Идентификатор : 2
Формат : AAC
Формат/Информация : Advanced Audio Codec
Профиль формата : LC
Идентификатор кодека : A_AAC
Продолжительность : 2 м. 6 с.
Битрейт : 124 Кбит/сек
Каналы : 2 канала
Расположение каналов : Front: L R
Частота : 44,1 КГц
Частота кадров : 43,066 кадра/сек (1024 spf)
Метод сжатия : С потерями
Размер потока : 1,87 Мбайт (1%)
Default : Да
[/code]
Скриншоты:

[Цитировать]



Показать сообщения:    

Текущее время: 07-Дек 17:30

Часовой пояс: UTC + 3


Вы не можете начинать темы
Вы не можете отвечать на сообщения
Вы не можете редактировать свои сообщения
Вы не можете удалять свои сообщения
Вы не можете голосовать в опросах
Вы не можете прикреплять файлы к сообщениям
Вы не можете скачивать файлы

!ВНИМАНИЕ!
Сайт не предоставляет электронные версии произведений, а занимается лишь коллекционированием и каталогизацией ссылок, присылаемых и публикуемых на форуме нашими читателями. Если вы являетесь правообладателем какого-либо представленного материала и не желаете, чтобы ссылка на него находилась в нашем каталоге, свяжитесь с нами, и мы незамедлительно удалим ее. Файлы для обмена на трекере предоставлены пользователями сайта, и администрация не несет ответственности за их содержание. Просьба не заливать файлы, защищенные авторскими правами, а также файлы нелегального содержания!