[ Сегодня идет свободное скачивание без начисления Download ]


Статистика раздачи
Нет
 
   
 
Top  
 
 
- -VA - Download Festival 2012 (Part1) (2012) HDTVRip- Год выпуска: 2012
Жанр: Rock / Metal, концерт
Описание фильма:
Download Festival — это ежегодный трехдневный рок-фестиваль, который проходит ежегодно, начиная с 2003 года на трассе Донингтон Парк, расположенной рядом с деревней Касл Донингтон, Великобритания. Фестиваль обычно проводится в конце весны. Также является собственностью компании Live Nation. Ежегодно фестиваль собирает более двадцати тысяч любителей тяжелой музыки.-Продолжительность: 1:42:00
Перевод: Отсутствует
Видеокодек: MPEG-4 AVC/H.264
Битрейт видео: ~16.1 Mbps, 25 fps
Размер кадра: 1920x1080i
Качество видео: HDTVRip
Аудиокодек: AC3
Битрейт аудио: Chann.: 2, Sample rate: 48 KHz, Bitrate: 384 kb/s-

Участники

01. Metallica - Enter Sandman ---- Tenacious D - Short Interview
02. Tenacious D - Tribute ---- Anthrax - Short Interview
03. Anthrax - Anti-Social
04. Terrorvision - Alice What's The Matter ---- Terrorvision - Short Interview
05. Sebastian Bach - American Metalhead
06. Nightwish - Storytime
07. Devildriver - Clouds Over California
08. Cancer Bats - Hail Destraoyer
09. The Quirebois - Seven O'Clock ---- Rise Against - Short Interview
10. Rise Against - Give It All
11. Slash Feat. Myles Kennedy - Back From Cali
12. Soundgarden - Outshined
13. Lamb Of God - Redneck ---- Lamb Of God - Short Interview
14. Chase And Status - Blind Faith
15. Chase And Status - No Problem ---- Tenacious D - Short Interview
16. Tenacious D - Deth Starr
17. Little Angels - She's A Little Angel
18. Nofx - The Quitter 19. Shinedown - Sound Of Madness 20. Black Spiders - Just Like A Woman 21. Lover Than Antlantis - If The World Was To End
22. Trivium - Throes Of Perdition
23. Slash Feat. Myles Kennedy - You're A Lie 24. Slash Feat. Myles Kennedy - Paradise City
25. Metallica - For Whom The Bell Tolls
26. Metallica - One

MediaInfo

Общее
Уникальный идентификатор                 : 172345935344454377512541767532046459873 (0x81A89EA91262465258524F73DA1823E1)
Полное имя                               : F:\Video\Download Festival 2012 Part1\Download Festival 2012 Part1.mkv
Формат                                   : Matroska
Версия формата                           : Version 2
Размер файла                             : 12,1 Гбайт
Продолжительность                        : 1 ч. 42 м.
Общий поток                              : 16,8 Мбит/сек
Программа кодирования                    : Lavf53.21.0
Библиотека кодирования                   : Lavf53.21.0
Видео
Идентификатор                            : 1
Формат                                   : AVC
Формат/Информация                        : Advanced Video Codec
Профиль формата                          : [url=mailto:Main@L4.0]Main@L4.0[/url]
Параметр CABAC формата                   : Да
Параметр ReFrames формата                : 4 кадра
Параметр GOP формата                     : M=4, N=12
Идентификатор кодека                     : V_MPEG4/ISO/AVC
Продолжительность                        : 1 ч. 42 м.
Битрейт                                  : 16,1 Мбит/сек
Ширина                                   : 1920 пикселей
Высота                                   : 1080 пикселей
Соотношение сторон                       : 16:9
Режим частоты кадров                     : Постоянный
Частота кадров                           : 25,000 кадров/сек
Цветовое пространство                    : YUV
Субдискретизация насыщенности            : 4:2:0
Битовая глубина                          : 8 бит
Тип развёртки                            : Чересстрочная
Порядок развёртки                        : Верхнее поле первое
Бит/(Пиксели*Кадры)                      : 0.310
Размер потока                            : 11,5 Гбайт (96%)
Default                                  : Да
Forced                                   : Нет
Основные цвета                           : BT.709
Характеристики трансфера                 : BT.709
Коэффициенты матрицы                     : BT.709
Аудио
Идентификатор                            : 2
Формат                                   : AC-3
Формат/Информация                        : Audio Coding 3
Расширение режима                        : CM (complete main)
Параметр Endianness формата              : Big
Идентификатор кодека                     : A_AC3
Продолжительность                        : 1 ч. 42 м.
Вид битрейта                             : Постоянный
Битрейт                                  : 384 Кбит/сек
Каналы                                   : 2 канала
Расположение каналов                     : Front: L R
Частота                                  : 48,0 КГц
Битовая глубина                          : 16 бит
Метод сжатия                             : С потерями
Задержка видео                           : 20 мс.
Размер потока                            : 282 Мбайт (2%)
Язык                                     : English
Default                                  : Да
Forced                                   : Нет
-Скриншоты:

-

[Цитировать]



Показать сообщения:    

Текущее время: 09-Дек 10:49

Часовой пояс: UTC + 3


Вы не можете начинать темы
Вы не можете отвечать на сообщения
Вы не можете редактировать свои сообщения
Вы не можете удалять свои сообщения
Вы не можете голосовать в опросах
Вы не можете прикреплять файлы к сообщениям
Вы не можете скачивать файлы

!ВНИМАНИЕ!
Сайт не предоставляет электронные версии произведений, а занимается лишь коллекционированием и каталогизацией ссылок, присылаемых и публикуемых на форуме нашими читателями. Если вы являетесь правообладателем какого-либо представленного материала и не желаете, чтобы ссылка на него находилась в нашем каталоге, свяжитесь с нами, и мы незамедлительно удалим ее. Файлы для обмена на трекере предоставлены пользователями сайта, и администрация не несет ответственности за их содержание. Просьба не заливать файлы, защищенные авторскими правами, а также файлы нелегального содержания!