[ Сегодня идет свободное скачивание без начисления Download ]


Статистика раздачи
Нет
 
   
 
Top  
 
 
Просто секс / Easy Six Название: Просто секс
Оригинальное название: Easy Six
Год выхода: 2003
Страна: США
Студия: Mustang Sally LLC, Trick Pictures
Продолжительность: 01:26:24
Жанр: драма, комедия, ...
Режиссер: Крис Иовенко
В ролях: Джулиан Сэндс, Алекс Сол, Рут Уильямсон, Джон Сэвидж, Дональд Фрид, Кайл Ховард, Анель Лопез Горам, Лорна Скотт, Кэтрин Таун, Джеймс Веллингтон, Джеймс Белуши, ...
Перевод: Профессиональный (двухголосый, закадровый) ?
О фильме: Паккард Шмидт — профессор английского языка в маленьком флоридском колледже. Он переживает «кризис среднего возраста» и делает отчаянные попытки восстановить реноме и скрасить свое одинокое существование. Это выливается в серию импульсивных романтических «подвигов», заканчивающихся кавалькадой неудач, как личных так и профессиональных. Неудачи, в конечном счете, изменяют его мировоззрение и учат Пака разбираться в значении и мощности желаний, потерь и любви…

Кодек: x264
Качество: DVDRip-AVC
Видео: 1024x576, 4500 kbps, 25 fps
Аудио #1: AC-3, 6 ch, 448 kbps (Rus) - DVO
Аудио #2: AC-3, 6 ch, 448 kbps (Eng)
Субтитры: Английские

Дополнительная информация

За исходник спасибо - Гость

MediaInfo

x264 [info]: frame I:851 Avg QP:13.66 size: 79020
x264 [info]: frame P:26113 Avg QP:15.85 size: 41369
x264 [info]: frame B:102646 Avg QP:17.91 size: 17221
x264 [info]: consecutive B-frames: 1.3% 2.1% 7.8% 11.3% 8.8% 63.7% 3.0% 0.5% 0.3% 0.3% 0.2% 0.5% 0.2%
Общее
Уникальный идентификатор : 210251660257990824353379849157472234538 (0x9E2CFF3090BFEA2FA2681B5EBD412C2A)
Полное имя : Просто секс (Easy Six) 2003 DVDRip.mkv
Формат : Matroska
Версия формата : Version 2
Размер файла : 3,26 Гбайт
Продолжительность : 1 ч. 26 м.
Общий поток : 5397 Кбит/сек
Дата кодирования : UTC 2016-10-08 18:11:00
Программа кодирования : mkvmerge v4.0.0 ('The Stars were mine') сборка от Jun 6 2010 16:18:42
Библиотека кодирования : libebml v1.0.0 + libmatroska v1.0.0
Видео
Идентификатор : 1
Формат : AVC
Формат/Информация : Advanced Video Codec
Профиль формата : High@L4.1
Параметр CABAC формата : Да
Параметр ReFrames формата : 12 кадров
Идентификатор кодека : V_MPEG4/ISO/AVC
Продолжительность : 1 ч. 26 м.
Битрейт : 4500 Кбит/сек
Ширина : 1024 пикселя
Высота : 576 пикселей
Соотношение сторон : 16:9
Режим частоты кадров : Постоянный
Частота кадров : 25,000 кадров/сек
Цветовое пространство : YUV
Субдискретизация насыщенности : 4:2:0
Битовая глубина : 8 бит
Тип развёртки : Прогрессивная
Бит/(Пиксели*Кадры) : 0.305
Размер потока : 2,65 Гбайт (81%)
Библиотека кодирования : x264 core 146 r2538 121396c
Настройки программы : cabac=1 / ref=12 / deblock=1:-3:-3 / analyse=0x3:0x133 / me=umh / subme=11 / psy=1 / psy_rd=1.00:0.00 / mixed_ref=1 / me_range=32 / chroma_me=1 / trellis=2 / 8x8dct=1 / cqm=0 / deadzone=21,11 / fast_pskip=0 / chroma_qp_offset=-2 / threads=12 / lookahead_threads=2 / sliced_threads=0 / nr=0 / decimate=0 / interlaced=0 / bluray_compat=0 / constrained_intra=0 / bframes=12 / b_pyramid=2 / b_adapt=2 / b_bias=0 / direct=3 / weightb=1 / open_gop=0 / weightp=2 / keyint=250 / keyint_min=25 / scenecut=40 / intra_refresh=0 / rc=2pass / mbtree=0 / bitrate=4500 / ratetol=1.0 / qcomp=0.60 / qpmin=0 / qpmax=69 / qpstep=4 / cplxblur=20.0 / qblur=0.5 / ip_ratio=1.40 / pb_ratio=1.30 / aq=1:0.80
Язык : English
Default : Нет
Forced : Нет
Аудио #1
Идентификатор : 2
Формат : AC-3
Формат/Информация : Audio Coding 3
Расширение режима : CM (complete main)
Параметр Endianness формата : Big
Идентификатор кодека : A_AC3
Продолжительность : 1 ч. 26 м.
Вид битрейта : Постоянный
Битрейт : 448 Кбит/сек
Каналы : 6 каналов
Расположение каналов : Front: L C R, Side: L R, LFE
Частота : 48,0 КГц
Частота кадров : 31,250 кадров/сек (1536 spf)
Метод сжатия : С потерями
Размер потока : 277 Мбайт (8%)
Заголовок : DVO
Язык : Russian
Default : Нет
Forced : Нет
Аудио #2
Идентификатор : 3
Формат : AC-3
Формат/Информация : Audio Coding 3
Расширение режима : CM (complete main)
Параметр Endianness формата : Big
Идентификатор кодека : A_AC3
Продолжительность : 1 ч. 26 м.
Вид битрейта : Постоянный
Битрейт : 448 Кбит/сек
Каналы : 6 каналов
Расположение каналов : Front: L C R, Side: L R, LFE
Частота : 48,0 КГц
Частота кадров : 31,250 кадров/сек (1536 spf)
Метод сжатия : С потерями
Размер потока : 277 Мбайт (8%)
Язык : English
Default : Нет
Forced : Нет
Текст
Идентификатор : 4
Формат : UTF-8
Идентификатор кодека : S_TEXT/UTF8
Идентификатор кодека/Информация : UTF-8 Plain Text
Язык : English
Default : Нет
Forced : Нет

Скриншоты


[Цитировать]



Показать сообщения:    

Текущее время: 26-Мар 23:07

Часовой пояс: UTC + 6


Вы не можете начинать темы
Вы не можете отвечать на сообщения
Вы не можете редактировать свои сообщения
Вы не можете удалять свои сообщения
Вы не можете голосовать в опросах
Вы не можете прикреплять файлы к сообщениям
Вы не можете скачивать файлы

!ВНИМАНИЕ!
Сайт не предоставляет электронные версии произведений, а занимается лишь коллекционированием и каталогизацией ссылок, присылаемых и публикуемых на форуме нашими читателями. Если вы являетесь правообладателем какого-либо представленного материала и не желаете, чтобы ссылка на него находилась в нашем каталоге, свяжитесь с нами, и мы незамедлительно удалим ее. Файлы для обмена на трекере предоставлены пользователями сайта, и администрация не несет ответственности за их содержание. Просьба не заливать файлы, защищенные авторскими правами, а также файлы нелегального содержания!