[ Сегодня идет свободное скачивание без начисления Download ]


Статистика раздачи
Нет
 
   
 
Top  
 
 
-DJ Tiesto in Concert 2003- Жанр: Progressive Trance
Продолжительность: 3:29:02
Год выпуска: 2012
Описание: Отличный концерт DJ Tiesto. Впечатляет девушка - вокалистка. Tiesto был первым DJ электронной танцевальной музыки (EDM), который столько заполнил стадион. Это произошло в 2003 году Gelredome в городе Арнем на голландско-немецкой границе. 25000 восторженных фанатов DJ Tiesto.-Треклист:
01 Tiesto - Magik Journey (Intro)
02 Tiesto - Adagio For Strings
03 Ernesto & Bastian - Wo's The Starter?
04 Skin - Faithfullness (Tiesto Remix)
05 Andain - Beautiful Things feat. Mavie Marcos
06 Brotherhood - Samba in the Wood
07 Cave - Carnival
08 Roc Project feat. Tina Arena - Never (Filterheadz Luv Tina Remix)
09 David Forbes - Answers
10 Mojado feat. Mr. Sam - Naranja (Dimitri Andreas Vision)
11 Salt Tank - Eugina (Michael Woods Remix)
12 Kane - Rain Down On Me (Tiesto Remix) (featuring Dinand Woesthoff)
13 Traditional - The Star Spangled Banner
14 Hampshire & Nysse present Nikita - Eternal Voices (Tiesto Alternative Breaks Mix)
15 Scott Bond vs Solarstone - 3rd Earth
16 Fictivision vs. C-Quence - Symbols
17 Max Walder - Crown
18 F.Massif - Understatement
19 Conjure One - Tears From The Moon (Tiesto Remix)
20 Tiesto - Traffic
21 Orange Studio's - Tiesto in Concert Asia
22 Coast 2 Coast - Searching (Coast 2 Coast Mix)
23 Solar Factor - Urban Shakedown
24 Freefall - Skydive feat. Jan Johnston
25 Literon/Speedy J - Collabs 200: Snacker
26 DJ Tiesto - Lethal Industry
27 Mark Norman - Rush
28 Omar Ka & Fula Band - Dimel/Koode Nyaari
29 DJ Tiesto - Theme From Norefjell (DJ Jan & Christophe Chantzis Mix)
30 Riley & Durrant - Candesco
31 Tiesto - Nyana
32 Saltwater - The Legacy (Alphazone Remix)
33 DJ Ton T.B. - Electronic Malfunction
34 DJ Tiesto - Flight 643
35 Armani & Ghost - Airport
36 De Jorge & Beijerink - Didjerrydoo
37 Tiesto vs. Junkie XL - Obsession (Frank Biazzi Mix)
38 Ralph Fridge - Man On Mars
39 DJ Tiesto - Suburban Train
40 Ricky Fobis - No Regular-Качество: BDRip 720p
Контейнер: MKV
Видео кодек: H.264
Аудио кодек: AC3
Видео: AVC, 1280x720, 16:9, 4042 Kbps, 25 fps
Аудио: AC3, 448 Kbps, 48 KHz, 6 ch
-
-

MediaInfo

Общее
Уникальный идентификатор : 253590877339463987773112697019743477420 (0xBEC7D390DC5D86C393B689780FE21EAC)
Полное имя : E:\Клипы\Tiesto.In.Concert.Directors.Cut.2003.720p.mkv
Формат : Matroska
Версия формата : Version 2
Размер файла : 6,56 Гбайт
Продолжительность : 3 ч. 29 м.
Общий поток : 4490 Кбит/сек
Дата кодирования : UTC 2012-12-09 14:43:24
Программа кодирования : mkvmerge v4.4.0 ('Die Wiederkehr') gemaakt op Oct 31 2010 21:52:48
Библиотека кодирования : libebml v1.0.0 + libmatroska v1.0.0
Видео
Идентификатор : 1
Формат : AVC
Формат/Информация : Advanced Video Codec
Профиль формата : High@L4.1
Параметр CABAC формата : Да
Параметр ReFrames формата : 5 кадров
Режим смешивания : Header stripping
Идентификатор кодека : V_MPEG4/ISO/AVC
Продолжительность : 3 ч. 29 м.
Битрейт : 4042 Кбит/сек
Ширина : 1280 пикселей
Высота : 720 пикселей
Соотношение сторон : 16:9
Режим частоты кадров : Постоянный
Частота кадров : 25,000 кадров/сек
Цветовое пространство : YUV
Субдискретизация насыщенности : 4:2:0
Битовая глубина : 8 бит
Тип развёртки : Прогрессивная
Бит/(Пиксели*Кадры) : 0.175
Размер потока : 5,77 Гбайт (88%)
Заголовок : English
Библиотека кодирования : x264 core 129 r2230 1cffe9f
Настройки программы : cabac=1 / ref=5 / deblock=1:0:0 / analyse=0x3:0x133 / me=umh / subme=7 / psy=1 / psy_rd=1.00:0.00 / mixed_ref=1 / me_range=16 / chroma_me=1 / trellis=1 / 8x8dct=1 / cqm=0 / deadzone=21,11 / fast_pskip=1 / chroma_qp_offset=-2 / threads=6 / lookahead_threads=1 / sliced_threads=0 / nr=0 / decimate=1 / interlaced=0 / bluray_compat=0 / constrained_intra=0 / bframes=3 / b_pyramid=2 / b_adapt=2 / b_bias=0 / direct=3 / weightb=1 / open_gop=0 / weightp=2 / keyint=250 / keyint_min=25 / scenecut=40 / intra_refresh=0 / rc=2pass / mbtree=0 / bitrate=4042 / ratetol=1.0 / qcomp=0.60 / qpmin=0 / qpmax=69 / qpstep=4 / cplxblur=20.0 / qblur=0.5 / ip_ratio=1.40 / pb_ratio=1.30 / aq=1:1.00
Язык : English
Default : Да
Forced : Нет
Аудио
Идентификатор : 2
Формат : AC-3
Формат/Информация : Audio Coding 3
Расширение режима : CM (complete main)
Параметр Endianness формата : Big
Режим смешивания : Header stripping
Идентификатор кодека : A_AC3
Продолжительность : 3 ч. 29 м.
Вид битрейта : Постоянный
Битрейт : 448 Кбит/сек
Каналы : 6 каналов
Расположение каналов : Front: L C R, Side: L R, LFE
Частота : 48,0 КГц
Битовая глубина : 16 бит
Метод сжатия : С потерями
Размер потока : 670 Мбайт (10%)
Заголовок : English
Язык : English
Default : Да
Forced : Нет
Меню
00:00:00.000 : en:00:00:00.000
00:02:10.400 : en:00:02:10.400
00:09:33.440 : en:00:09:33.440
00:15:08.760 : en:00:15:08.760
00:21:00.880 : en:00:21:00.880
00:29:24.480 : en:00:29:24.480
00:30:19.000 : en:00:30:19.000
00:32:25.120 : en:00:32:25.120
00:37:58.320 : en:00:37:58.320
00:44:50.200 : en:00:44:50.200
00:48:21.040 : en:00:48:21.040
00:51:18.040 : en:00:51:18.040
00:58:58.240 : en:00:58:58.240
00:59:56.760 : en:00:59:56.760
01:05:30.800 : en:01:05:30.800
01:12:44.880 : en:01:12:44.880
01:18:29.560 : en:01:18:29.560
01:23:57.160 : en:01:23:57.160
01:29:04.320 : en:01:29:04.320
01:35:46.760 : en:01:35:46.760
01:40:41.960 : en:01:40:41.960
01:47:08.880 : en:01:47:08.880
01:49:18.280 : en:01:49:18.280
01:53:19.160 : en:01:53:19.160
02:00:49.080 : en:02:00:49.080
02:04:40.480 : en:02:04:40.480
02:09:42.840 : en:02:09:42.840
02:16:06.000 : en:02:16:06.000
02:20:11.840 : en:02:20:11.840
02:25:20.120 : en:02:25:20.120
02:32:35.880 : en:02:32:35.880
02:37:55.880 : en:02:37:55.880
02:45:29.480 : en:02:45:29.480
02:53:39.880 : en:02:53:39.880
03:00:09.880 : en:03:00:09.880
03:02:50.400 : en:03:02:50.400
03:04:50.880 : en:03:04:50.880
03:07:28.280 : en:03:07:28.280
03:13:06.200 : en:03:13:06.200
03:23:50.120 : en:03:23:50.120

[Цитировать]



Показать сообщения:    

Текущее время: 09-Дек 22:20

Часовой пояс: UTC + 3


Вы не можете начинать темы
Вы не можете отвечать на сообщения
Вы не можете редактировать свои сообщения
Вы не можете удалять свои сообщения
Вы не можете голосовать в опросах
Вы не можете прикреплять файлы к сообщениям
Вы не можете скачивать файлы

!ВНИМАНИЕ!
Сайт не предоставляет электронные версии произведений, а занимается лишь коллекционированием и каталогизацией ссылок, присылаемых и публикуемых на форуме нашими читателями. Если вы являетесь правообладателем какого-либо представленного материала и не желаете, чтобы ссылка на него находилась в нашем каталоге, свяжитесь с нами, и мы незамедлительно удалим ее. Файлы для обмена на трекере предоставлены пользователями сайта, и администрация не несет ответственности за их содержание. Просьба не заливать файлы, защищенные авторскими правами, а также файлы нелегального содержания!