[ Сегодня идет свободное скачивание без начисления Download ]


Статистика раздачи
Нет
 
   
 
Top  
 
 
-Metallica: Quebec Magnetic 2009 (2012) [1080p] BDRip- Оригинальное название: Quebec Magnetic
Жанр: Rock, Thrash Metal
Продолжительность: 02:14:42 + 00:42:10
Год выпуска: 2009
Выпущено: Германия | Universal Music
Режиссер: Wayne Isham
Описание фильма:
31 октября и 1 ноября у группы Metallica состоялись два концерта в рамках тура “World Magnetic” в городе Квебек. Всего на оба вечера было продано свыше 33 тысяч билетов. Сет-лист первого концерта не принёс каких-то новшеств. Более того, в нём нет ни одной песни или концертного номера, на котором стоило было бы заострить своё внимание. Второй сет был куда удачнее и интереснее. В него попали такие композиции, как возродившаяся недавно “The Shortest Straw”, редко исполняемая “My Apocalypse”, куда более реже встречающаяся “Battery” и “Killing Time” группы Sweet Savage. Оба концерта в Квебек были отсняты знакомым нам режиссером Уэйном Ишемом (Wayne Isham)-Треклист:
01. That Was Just Your Life
02. The End Of The Line
03. The Four Horsemen
04. The Shortest Straw
05. One
06. Broken, Beat & Scarred
07. My Apocalypse
08. Sad But True
09. Welcome Home (Sanitarium)
10. The Judas Kiss
11. The Day That Never Comes
12. Master of Puppets
13. Battery
14. Nothing Else Matters
15. Enter Sandman
16. Killing Time
17. Whiplash
18. Seek & Destroy
Bonus Songs 19. For Whom the Bell Tolls
20. Holier Than Thou
21. Cyanide
22. Turn the Page
23. All Nightmare Long
24. Damage, Inc.
25. Breadfan
26. Phantom Lord--Качество видео: BDRip 1080p
Видеокодек: MPEG-4 AVC
Битрейт видео: ~9,0 mbps avg, 29,970 fps
Размер кадра: 1920x1080р, (16:9), 0.144 bit/pixel
Аудиокодек: DTS
Аудио: 48 kHz, DTS, 6 ch, 1509 kbps
Sempl

MediaInfo:

Формат : Matroska
Версия формата : Version 2
Размер файла : 9,84 Гбайт
Продолжительность : 2 ч. 14 м.
Общий поток : 10,5 Мбит/сек
Дата кодирования : UTC 2012-12-08 16:40:46
Программа кодирования : mkvmerge v5.7.0 ('The Whirlwind') built on Jul 8 2012 20:08:51
Библиотека кодирования : libebml v1.2.3 + libmatroska v1.3.0
Видео
Идентификатор : 1
Формат : AVC
Формат/Информация : Advanced Video Codec
Профиль формата : High@L4.1
Параметр CABAC формата : Да
Параметр ReFrames формата : 4 кадра
Идентификатор кодека : V_MPEG4/ISO/AVC
Продолжительность : 2 ч. 14 м.
Битрейт : 8928 Кбит/сек
Ширина : 1920 пикселей
Высота : 1080 пикселей
Соотношение сторон : 16:9
Режим частоты кадров : Постоянный
Частота кадров : 29,970 кадров/сек
Цветовое пространство : YUV
Субдискретизация насыщенности : 4:2:0
Битовая глубина : 8 бит
Тип развёртки : Прогрессивная
Бит/(Пиксели*Кадры) : 0.144
Размер потока : 8,22 Гбайт (84%)
Библиотека кодирования : x264 core 129 r2230 1cffe9f
Настройки программы : cabac=1 / ref=4 / deblock=1:0:0 / analyse=0x3:0x133 / me=umh / subme=8 / psy=1 / psy_rd=1.00:0.00 / mixed_ref=1 / me_range=16 / chroma_me=1 / trellis=1 / 8x8dct=1 / cqm=0 / deadzone=21,11 / fast_pskip=0 / chroma_qp_offset=-2 / threads=12 / lookahead_threads=2 / sliced_threads=0 / nr=0 / decimate=1 / interlaced=0 / bluray_compat=0 / constrained_intra=0 / bframes=3 / b_pyramid=2 / b_adapt=1 / b_bias=0 / direct=1 / weightb=1 / open_gop=0 / weightp=2 / keyint=250 / keyint_min=25 / scenecut=40 / intra_refresh=0 / rc_lookahead=40 / rc=2pass / mbtree=1 / bitrate=8928 / ratetol=1.0 / qcomp=0.60 / qpmin=0 / qpmax=69 / qpstep=4 / cplxblur=20.0 / qblur=0.5 / ip_ratio=1.40 / aq=1:1.00
Язык : English
Default : Да
Forced : Нет
Аудио
Идентификатор : 2
Формат : DTS
Формат/Информация : Digital Theater Systems
Режим : 16
Параметр Endianness формата : Big
Идентификатор кодека : A_DTS
Продолжительность : 2 ч. 14 м.
Вид битрейта : Постоянный
Битрейт : 1509 Кбит/сек
Каналы : 6 каналов
Расположение каналов : Front: L C R, Side: L R, LFE
Частота : 48,0 КГц
Битовая глубина : 24 бит
Метод сжатия : С потерями
Размер потока : 1,42 Гбайт (14%)
Default : Да
Forced : Нет
Меню
00:00:00.000 : en:00:00:00.000
00:01:36.096 : en:00:01:36.096
00:08:44.958 : en:00:08:44.958
00:16:31.257 : en:00:16:31.257
00:21:58.784 : en:00:21:58.784
00:28:08.287 : en:00:28:08.287
00:36:01.893 : en:00:36:01.893
00:44:29.167 : en:00:44:29.167
00:51:12.703 : en:00:51:12.703
00:57:13.397 : en:00:57:13.397
01:03:23.500 : en:01:03:23.500
01:13:12.188 : en:01:13:12.188
01:21:10.733 : en:01:21:10.733
01:29:17.319 : en:01:29:17.319
01:36:23.611 : en:01:36:23.611
01:42:08.756 : en:01:42:08.756
01:50:59.119 : en:01:50:59.119
01:53:53.927 : en:01:53:53.927
02:00:58.818 : en:02:00:58.818
02:08:09.782 : en:02:08:09.782
************************************
Bonus
Формат : Matroska
Версия формата : Version 2
Размер файла : 3,28 Гбайт
Продолжительность : 42 м.
Общий поток : 11,1 Мбит/сек
Дата кодирования : UTC 2012-12-08 21:34:25
Программа кодирования : mkvmerge v5.7.0 ('The Whirlwind') built on Jul 8 2012 20:08:51
Библиотека кодирования : libebml v1.2.3 + libmatroska v1.3.0
Видео
Идентификатор : 1
Формат : AVC
Формат/Информация : Advanced Video Codec
Профиль формата : High@L4.1
Параметр CABAC формата : Да
Параметр ReFrames формата : 4 кадра
Идентификатор кодека : V_MPEG4/ISO/AVC
Продолжительность : 42 м.
Битрейт : 9593 Кбит/сек
Ширина : 1920 пикселей
Высота : 1080 пикселей
Соотношение сторон : 16:9
Режим частоты кадров : Постоянный
Частота кадров : 29,970 кадров/сек
Цветовое пространство : YUV
Субдискретизация насыщенности : 4:2:0
Битовая глубина : 8 бит
Тип развёртки : Прогрессивная
Бит/(Пиксели*Кадры) : 0.154
Размер потока : 2,77 Гбайт (84%)
Библиотека кодирования : x264 core 129 r2230 1cffe9f
Настройки программы : cabac=1 / ref=4 / deblock=1:0:0 / analyse=0x3:0x133 / me=umh / subme=8 / psy=1 / psy_rd=1.00:0.00 / mixed_ref=1 / me_range=16 / chroma_me=1 / trellis=1 / 8x8dct=1 / cqm=0 / deadzone=21,11 / fast_pskip=0 / chroma_qp_offset=-2 / threads=12 / lookahead_threads=2 / sliced_threads=0 / nr=0 / decimate=1 / interlaced=0 / bluray_compat=0 / constrained_intra=0 / bframes=3 / b_pyramid=2 / b_adapt=1 / b_bias=0 / direct=1 / weightb=1 / open_gop=0 / weightp=2 / keyint=250 / keyint_min=25 / scenecut=40 / intra_refresh=0 / rc_lookahead=40 / rc=2pass / mbtree=1 / bitrate=9593 / ratetol=1.0 / qcomp=0.60 / qpmin=0 / qpmax=69 / qpstep=4 / cplxblur=20.0 / qblur=0.5 / ip_ratio=1.40 / aq=1:1.00
Язык : English
Default : Да
Forced : Нет
Аудио
Идентификатор : 2
Формат : DTS
Формат/Информация : Digital Theater Systems
Режим : 16
Параметр Endianness формата : Big
Идентификатор кодека : A_DTS
Продолжительность : 42 м.
Вид битрейта : Постоянный
Битрейт : 1509 Кбит/сек
Каналы : 6 каналов
Расположение каналов : Front: L C R, Side: L R, LFE
Частота : 48,0 КГц
Битовая глубина : 24 бит
Метод сжатия : С потерями
Размер потока : 455 Мбайт (14%)
Default : Да
Forced : Нет
Меню
00:00:00.000 : en:00:00:00.000
00:05:06.840 : en:00:05:06.840
00:08:52.532 : en:00:08:52.532
00:15:51.050 : en:00:15:51.050
00:21:10.202 : en:00:21:10.202
00:29:02.774 : en:00:29:02.774
00:34:21.359 : en:00:34:21.359
00:38:30.341 : en:00:38:30.341
Скриншоты:

[Цитировать]



Показать сообщения:    

Текущее время: 10-Дек 06:08

Часовой пояс: UTC + 3


Вы не можете начинать темы
Вы не можете отвечать на сообщения
Вы не можете редактировать свои сообщения
Вы не можете удалять свои сообщения
Вы не можете голосовать в опросах
Вы не можете прикреплять файлы к сообщениям
Вы не можете скачивать файлы

!ВНИМАНИЕ!
Сайт не предоставляет электронные версии произведений, а занимается лишь коллекционированием и каталогизацией ссылок, присылаемых и публикуемых на форуме нашими читателями. Если вы являетесь правообладателем какого-либо представленного материала и не желаете, чтобы ссылка на него находилась в нашем каталоге, свяжитесь с нами, и мы незамедлительно удалим ее. Файлы для обмена на трекере предоставлены пользователями сайта, и администрация не несет ответственности за их содержание. Просьба не заливать файлы, защищенные авторскими правами, а также файлы нелегального содержания!