[ Сегодня идет свободное скачивание без начисления Download ]


Статистика раздачи
Нет
 
   
 
Top  
 
 
-Danko Jones - Westend Indoor Festival(2012) HDTVRip- Год выпуска: 2012
Жанр: хард-рок, хеви-метал, блюз-рок, панк-рок, альтернативный метал, концерт
Страна: Канада
Описание фильма:
Live-выступление канадской группы Danko Jones-Актеры:
Danko Jones - Vocals/Guitar
John Calabrese - Bass
Atom Willard - Drums-Продолжительность: 1:11:12
Перевод: Отсутствует
Видеокодек: MPEG-4 AVC/H.264
Битрейт видео: ~6417 Kbps, 25 fps
Размер кадра: 1272х712, 16:9
Качество видео: HDTVRip
Аудиокодек: AC3
Битрейт аудио: 448 Kbps, 48 KHz, 2 ch-

Трэклист

01. Terrified
02. I Want You
03. Forget My Name
04. First Date
05. Just A Beautiful Day
06. Way To My Heart
07. Code Of The Road
08. Full Of Regret
09. Lovercall
10. Conceited
11. Cadillac
12. I Believed In God
13. I Think Bad Thoughts
14. Had Enough
15. Mountain

MediaInfo

Общее
Уникальный идентификатор                 : 253843701000324194213670900443597965877 (0xBEF884BC179FC55A8E7B0BC21BC30A35)
Полное имя                               : F:\Video\danko_jones-westend_indoor_festival_(2012)-720p-x264-2012-srp.mkv
Формат                                   : Matroska
Версия формата                           : Version 2
Размер файла                             : 3,48 Гбайт
Продолжительность                        : 1 ч. 11 м.
Общий поток                              : 7004 Кбит/сек
Дата кодирования                         : UTC 2012-12-08 17:50:15
Программа кодирования                    : mkvmerge v5.8.0 ('No Sleep / Pillow') built on Sep  2 2012 15:37:04
Библиотека кодирования                   : libebml v1.2.3 + libmatroska v1.3.0
Видео
Идентификатор                            : 1
Формат                                   : AVC
Формат/Информация                        : Advanced Video Codec
Профиль формата                          : [url=mailto:High@L4.1]High@L4.1[/url]
Параметр CABAC формата                   : Да
Параметр ReFrames формата                : 5 кадров
Идентификатор кодека                     : V_MPEG4/ISO/AVC
Продолжительность                        : 1 ч. 11 м.
Битрейт                                  : 6417 Кбит/сек
Ширина                                   : 1272 пикселя
Высота                                   : 712 пикселей
Соотношение сторон                       : 16:9
Режим частоты кадров                     : Постоянный
Частота кадров                           : 25,000 кадров/сек
Цветовое пространство                    : YUV
Субдискретизация насыщенности            : 4:2:0
Битовая глубина                          : 8 бит
Тип развёртки                            : Прогрессивная
Бит/(Пиксели*Кадры)                      : 0.283
Размер потока                            : 3,19 Гбайт (92%)
Библиотека кодирования                   : x264 core 129 r2230 1cffe9f
Настройки программы                      : cabac=1 / ref=5 / deblock=1:-1:-1 / analyse=0x3:0x133 / me=umh / subme=9 / psy=1 / psy_rd=1.00:0.00 / mixed_ref=1 / me_range=24 / chroma_me=1 / trellis=1 / 8x8dct=1 / cqm=0 / deadzone=21,11 / fast_pskip=1 / chroma_qp_offset=-2 / threads=18 / lookahead_threads=3 / sliced_threads=0 / nr=0 / decimate=1 / interlaced=0 / bluray_compat=0 / constrained_intra=0 / bframes=16 / b_pyramid=2 / b_adapt=2 / b_bias=0 / direct=3 / weightb=1 / open_gop=0 / weightp=2 / keyint=250 / keyint_min=25 / scenecut=40 / intra_refresh=0 / rc_lookahead=60 / rc=crf / mbtree=1 / crf=18.0 / qcomp=0.60 / qpmin=0 / qpmax=69 / qpstep=4 / ip_ratio=1.40 / aq=1:1.00
Default                                  : Да
Forced                                   : Нет
Аудио
Идентификатор                            : 2
Формат                                   : AC-3
Формат/Информация                        : Audio Coding 3
Расширение режима                        : CM (complete main)
Параметр Endianness формата              : Big
Идентификатор кодека                     : A_AC3
Продолжительность                        : 1 ч. 11 м.
Вид битрейта                             : Постоянный
Битрейт                                  : 448 Кбит/сек
Каналы                                   : 2 канала
Расположение каналов                     : Front: L R
Частота                                  : 48,0 КГц
Битовая глубина                          : 16 бит
Метод сжатия                             : С потерями
Задержка видео                           : 150 мс.
Размер потока                            : 228 Мбайт (6%)
Default                                  : Да
Forced                                   : Нет
-Скриншоты:

[Цитировать]



Показать сообщения:    

Текущее время: 08-Дек 07:07

Часовой пояс: UTC + 3


Вы не можете начинать темы
Вы не можете отвечать на сообщения
Вы не можете редактировать свои сообщения
Вы не можете удалять свои сообщения
Вы не можете голосовать в опросах
Вы не можете прикреплять файлы к сообщениям
Вы не можете скачивать файлы

!ВНИМАНИЕ!
Сайт не предоставляет электронные версии произведений, а занимается лишь коллекционированием и каталогизацией ссылок, присылаемых и публикуемых на форуме нашими читателями. Если вы являетесь правообладателем какого-либо представленного материала и не желаете, чтобы ссылка на него находилась в нашем каталоге, свяжитесь с нами, и мы незамедлительно удалим ее. Файлы для обмена на трекере предоставлены пользователями сайта, и администрация не несет ответственности за их содержание. Просьба не заливать файлы, защищенные авторскими правами, а также файлы нелегального содержания!