[ Сегодня идет свободное скачивание без начисления Download ]


Статистика раздачи
Нет
 
   
 
Top  
 
 
-Я, Алекс Кросс / Alex Cross (2012) BDRemux
«Жестокое преступление. Извращенный убийца. Смертельная игра»
- Русское название: Я, Алекс Кросс
Оригинальное название: Alex Cross
Год выпуска: 2012
Производство: Envision Entertainment Corporation / IAC Productions / James Patterson Entertainment / QED International [США]
Жанр: Боевик, триллер, криминал, детектив
Перевод: Дублированный [лицензия]
Субтитры: Вшитые отключаемые (PGS)
Язык субтитров: Русский
Режиссер: Роб Коэн
Актеры: Тайлер Перри, Мэттью Фокс, Эдвард Бёрнс, Рэйчел Николс, Жан Рено, Кармен Эджого, Сисели Тайсон, Джон К. МакГинли, Джанкарло Эспозито, Чэд Линдберг
Описание фильма:
Знаменитый детектив Алекс Кросс идет по следам серийного убийцы, и с удивлением обнаруживает, что почерк преступника соответствует манере действий безжалостного маньяка по прозвищу Мясник. Десять лет назад Кросс сорвал исполнение одного из его смертельных контрактов, за что Мясник убил беременную жену полицейского и бесследно исчез. Неужели он вернулся? Кросс вступает в смертельную игру.
Дата мировой премьеры: 15 октября 2012
Дата российской премьеры: 18 октября 2012, «Парадиз»
Дата выхода DVD релиза: 18 декабря 2012, «Парадиз Медиа»
Дата выхода Blu-Ray релиза: 18 декабря 2012, «Парадиз Медиа»

Продолжительность: 01:41:23
Качество видео: BDRemux
Видео: MPEG4_AVC/H.264, 1920x1080, ~ 31346 kbps, Bit/Pixel: 0.628
Аудио 1: DTS-HD MA 5.1, 1876 kbps [Русский - дублированный]
Аудио 2: AC3 5.1, 640 kbps [Русский - дублированный]
Аудио 3: DTS-HD MA 5.1, 1903 kbps [Английский - оригинал]

MediaInfo...

Полное имя : D:\Я.Алекс.Кросс-Alex.Cross.(2012).[1080p].BDRemux.mkv
Формат : Matroska
Версия формата : Version 2
Размер файла : 25,8 Гбайт
Продолжительность : 1 ч. 41 м.
Режим общего битрейта : Переменный
Общий поток : 36,4 Мбит/сек
Название фильма : Release by Lelya_K for NNM-Club.ru
Дата кодирования : UTC 2012-12-08 03:10:45
Программа кодирования : mkvmerge v5.7.0 ('The Whirlwind') built on Aug 7 2012 14:11:40
Библиотека кодирования : libebml v1.2.3 + libmatroska v1.3.0
Видео
Идентификатор : 1
Формат : AVC
Формат/Информация : Advanced Video Codec
Профиль формата : [email protected]
Параметр CABAC формата : Да
Параметр ReFrames формата : 4 кадра
Параметр GOP формата : M=3, N=24
Идентификатор кодека : V_MPEG4/ISO/AVC
Продолжительность : 1 ч. 41 м.
Вид битрейта : Постоянный
Битрейт : 31,3 Мбит/сек
Номинальный битрейт : 33,0 Мбит/сек
Ширина : 1920 пикселей
Высота : 1080 пикселей
Соотношение сторон : 16:9
Режим частоты кадров : Постоянный
Частота кадров : 24,000 кадра/сек
Стандарт вещания : NTSC
Цветовое пространство : YUV
Субдискретизация насыщенности : 4:2:0
Битовая глубина : 8 бит
Тип развёртки : Прогрессивная
Бит/(Пиксели*Кадры) : 0.628
Размер потока : 22,1 Гбайт (86%)
Заголовок : Я.Алекс.Кросс-Alex.Cross.(2012).[1080p].BDRemux
Default : Да
Forced : Нет
Основные цвета : BT.709
Характеристики трансфера : BT.709
Коэффициенты матрицы : BT.709
Аудио #1
Идентификатор : 2
Формат : DTS
Формат/Информация : Digital Theater Systems
Профиль формата : MA / Core
Идентификатор кодека : A_DTS
Продолжительность : 1 ч. 41 м.
Вид битрейта : Переменный
Битрейт : 1876 Кбит/сек / 1510 Кбит/сек
Каналы : 6 каналов
Расположение каналов : Front: L C R, Side: L R, LFE
Частота : 48,0 КГц
Битовая глубина : 16 бит
Метод сжатия : Без потерь / Lossy
Заголовок : DTS-HD MA 5.1 / Rus / Dub
Язык : Russian
Default : Да
Forced : Нет
Аудио #2
Идентификатор : 3
Формат : AC-3
Формат/Информация : Audio Coding 3
Расширение режима : CM (complete main)
Параметр Endianness формата : Big
Идентификатор кодека : A_AC3
Продолжительность : 1 ч. 41 м.
Вид битрейта : Постоянный
Битрейт : 640 Кбит/сек
Каналы : 6 каналов
Расположение каналов : Front: L C R, Side: L R, LFE
Частота : 48,0 КГц
Битовая глубина : 16 бит
Метод сжатия : С потерями
Размер потока : 464 Мбайт (2%)
Заголовок : AC3 5.1 / Rus / Dub
Язык : Russian
Default : Нет
Forced : Нет
Аудио #3
Идентификатор : 4
Формат : DTS
Формат/Информация : Digital Theater Systems
Профиль формата : MA / Core
Идентификатор кодека : A_DTS
Продолжительность : 1 ч. 41 м.
Вид битрейта : Переменный
Битрейт : 1903 Кбит/сек / 1510 Кбит/сек
Каналы : 6 каналов
Расположение каналов : Front: L C R, Side: L R, LFE
Частота : 48,0 КГц
Битовая глубина : 16 бит
Метод сжатия : Без потерь / Lossy
Заголовок : DTS-HD MA 5.1 / Eng / Original
Язык : English
Default : Нет
Forced : Нет
Текст
Идентификатор : 5
Формат : PGS
Идентификатор кодека : S_HDMV/PGS
Идентификатор кодека/Информация : The same subtitle format used on BDs/HD-DVDs
Заголовок : Russian
Язык : Russian
Default : Нет
Forced : Нет
Меню
00:00:00.000 : en:Chapter 00
00:03:06.250 : en:Chapter 01
00:08:32.708 : en:Chapter 02
00:14:43.291 : en:Chapter 03
00:22:34.000 : en:Chapter 04
00:31:05.458 : en:Chapter 05
00:35:22.500 : en:Chapter 06
00:39:46.125 : en:Chapter 07
00:46:41.166 : en:Chapter 08
00:48:43.000 : en:Chapter 09
00:56:28.500 : en:Chapter 10
01:03:28.166 : en:Chapter 11
01:07:51.375 : en:Chapter 12
01:12:58.750 : en:Chapter 13
01:18:01.583 : en:Chapter 14
01:23:09.791 : en:Chapter 15
01:28:31.666 : en:Chapter 16
01:33:49.083 : en:Chapter 17

BV...

Скриншоты:


Время раздачи: 24/7 (до 10 скачавших)

[Цитировать]



Показать сообщения:    

Текущее время: 05-Дек 03:31

Часовой пояс: UTC + 3


Вы не можете начинать темы
Вы не можете отвечать на сообщения
Вы не можете редактировать свои сообщения
Вы не можете удалять свои сообщения
Вы не можете голосовать в опросах
Вы не можете прикреплять файлы к сообщениям
Вы не можете скачивать файлы

!ВНИМАНИЕ!
Сайт не предоставляет электронные версии произведений, а занимается лишь коллекционированием и каталогизацией ссылок, присылаемых и публикуемых на форуме нашими читателями. Если вы являетесь правообладателем какого-либо представленного материала и не желаете, чтобы ссылка на него находилась в нашем каталоге, свяжитесь с нами, и мы незамедлительно удалим ее. Файлы для обмена на трекере предоставлены пользователями сайта, и администрация не несет ответственности за их содержание. Просьба не заливать файлы, защищенные авторскими правами, а также файлы нелегального содержания!