[ Today is free to download without increasing Download ]

DL-List and Torrent activity
Complete: [ 1 ]
Русское чудо Информация о фильме
Название: Русское чудо
Год выхода: 1994
Жанр: Комедия
Режиссёр: Михаил Кокшенов
В ролях: Михаил Кокшенов, Семен Фарада, Наталья Крачковская, Леонид Куравлёв, Рудольф Рудин, Татьяна Кравченко, Вадим Захарченко, Евгений Марченко, Валерий Носик, Владимир Кондратьев
О фильме: Предприимчивый Иван решает организовать гастроли в Америке знаменитого русского экстрасенса Юрия Кошмаровского и подзаработать немного «зеленых». Однако, перед самым вылетом обнаруживается, что маэстро попал в больницу. Ну не отменять же выступления из-за такого пустяка! К счастью, в аэропорт Ивана провожала тетя Катя с мужем Петей, который, как оказалось, почти двойник Кошмаровского...

Страна: Россия
Студия: Рубиз, Саби
Продолжительность: 01:15:49
Перевод: Не требуется (оригинальный)
Формат: avi
Качество: DVDRip (DVD5)
Видео: XviD, 624х480, 25fps, 1240kbps
Аудио: MPEG Layer 3, 2ch, 48000Hz, 128kbps


Complete name : Russkoe.Chudo.1994.O.DVDRip.700.CurHaJI.avi
Format : AVI
Format/Info : Audio Video Interleave
File size : 747 MiB
Duration : 1h 15mn
Overall bit rate : 1 377 Kbps
Movie name : Russkoe.Chudo.1994.O.DVDRip.700.CurHaJI
Writing application : VirtualDubMod | www.virtualdub-fr.org || (build 2550/release)
Writing library : VirtualDub build 35491/release
ID : 0
Format : MPEG-4 Visual
Format profile : Advanced Simple@L5
Format settings, BVOP : 2
Format settings, QPel : No
Format settings, GMC : No warppoints
Format settings, Matrix : Custom
Codec ID : XVID
Codec ID/Hint : XviD
Duration : 1h 15mn
Bit rate : 1 240 Kbps
Width : 624 pixels
Height : 480 pixels
Display aspect ratio : 4:3
Frame rate : 25.000 fps
Color space : YUV
Chroma subsampling : 4:2:0
Bit depth : 8 bits
Scan type : Progressive
Compression mode : Lossy
Bits/(Pixel*Frame) : 0.166
Stream size : 672 MiB (90%)
Writing library : XviD 73
ID : 1
Format : MPEG Audio
Format version : Version 1
Format profile : Layer 3
Codec ID : 55
Codec ID/Hint : MP3
Duration : 1h 15mn
Bit rate mode : Constant
Bit rate : 128 Kbps
Channel(s) : 2 channels
Sampling rate : 48.0 KHz
Compression mode : Lossy
Stream size : 69.4 MiB (9%)
Alignment : Aligned on interleaves
Interleave, duration : 40 ms (1.00 video frame)
Interleave, preload duration : 504 ms
Writing library : LAME3.99r
Encoding settings : -m s -V 4 -q 2 -lowpass 17 -b 128



Display posts:    

Current time is: 24-Oct 04:40

All times are UTC + 3

You cannot post new topics in this forum
You cannot reply to topics in this forum
You cannot edit your posts in this forum
You cannot delete your posts in this forum
You cannot vote in polls in this forum
You cannot attach files in this forum
You cannot download files in this forum

The site does not give electronic versions of products, and is engaged only in a collecting and cataloguing of the references sent and published at a forum by our readers. If you are the legal owner of any submitted material and do not wish that the reference to it was in our catalogue, contact us and we shall immediately remove her. Files for an exchange on tracker are given by users of a site, and the administration does not bear the responsibility for their maintenance. The request to not fill in the files protected by copyrights, and also files of the illegal maintenance!