[ Сегодня идет свободное скачивание без начисления Download ]


Статистика раздачи
Нет
 
   
 
Top  
 
 
-Большая неудача / Fuck Up (2012) BDRip- Русское название: Большая неудача
Оригинальное название: Fuck Up
Год выпуска: 2012
Жанр: Драма
Описание фильма:
Джек доволен собой. Он только что решил перестать спать со всем, что движется, и завязать с наркотиками. Но в ту же ночь его лучший друг Гленн сбивает на машине лося на Шведской границе во время своей последней ходки. Полиция обнаружила Гленна с проломленным черепом и 3.8 килограммами кокаина в машине. В течение следующих 24 часов Джек теряет свой дом, работу, девушку , а его самого пытаются убить. Теперь ему приходится бороться за жизнь тех нескольких человек, которые любят его. И когда кажется, что хуже уже быть не может, дело приобретает еще более серьезный поворот.
Режиссер: Ёйстейн Карлсен
Актеры: Андерс Баасмо Кристиансен, Леннарт Якель, Михалис Куцогиннакис, Тува Новотны, Франк Сковланд, Йон Ёигарден
Продолжительность: 01:36:00
Перевод: Одноголосый закадровый [den904]
Внимание! Ненормативная лексика.
Язык субтитров: Норвежский, Английский

Дата мировой премьеры: 16 марта 2012-Видеокодек: MPEG-4 AVC/H.264
Битрейт видео: ~6202 kbps
Размер кадра: 1280 x 720
Качество видео: BDRip
Аудиокодек: AC3 5.1 / AC3 2.0
Аудио 1: Русский, AC3 5.1, 448 kbps, 48 kHz
Аудио 2: Норвежский, AC3 5.1, 640 kbps, 48 kHz
Аудио 3: Норвежский, AC3 2.0, 224 kbps, 48 kHz (Комментарий)-Сэмпл: Ссылка-

BV

-

MediaInfo:

Общее
Уникальный идентификатор : 242168219994272128085023797946706668520 (0xB62FE713D8DA620E967B64BDC409ABE8)
Полное имя : D:\Films\Fuck.Up.2012.720p.BDRip.mkv
Формат : Matroska
Версия формата : Version 2
Размер файла : 5,04 Гбайт
Продолжительность : 1 ч. 36 м.
Общий поток : 7516 Кбит/сек
Дата кодирования : UTC 2012-12-06 07:23:33
Программа кодирования : mkvmerge v5.2.0 ('I can't explain') built on Dec 18 2011 18:12:03
Библиотека кодирования : libebml v1.2.3 + libmatroska v1.3.0
Видео
Идентификатор : 1
Формат : AVC
Формат/Информация : Advanced Video Codec
Профиль формата : High@L4.1
Параметр CABAC формата : Да
Параметр ReFrames формата : 9 кадров
Идентификатор кодека : V_MPEG4/ISO/AVC
Продолжительность : 1 ч. 36 м.
Битрейт : 6055 Кбит/сек
Ширина : 1280 пикселей
Высота : 720 пикселей
Соотношение сторон : 16:9
Частота кадров : 25,000 кадров/сек
Цветовое пространство : YUV
Субдискретизация насыщенности : 4:2:0
Битовая глубина : 8 бит
Тип развёртки : Прогрессивная
Бит/(Пиксели*Кадры) : 0.263
Размер потока : 4,06 Гбайт (81%)
Библиотека кодирования : x264 core 125 r2200 999b753
Настройки программы : cabac=1 / ref=9 / deblock=1:-3:-3 / analyse=0x3:0x133 / me=umh / subme=10 / psy=1 / psy_rd=1.20:0.10 / mixed_ref=1 / me_range=24 / chroma_me=1 / trellis=2 / 8x8dct=1 / cqm=0 / deadzone=21,11 / fast_pskip=1 / chroma_qp_offset=-3 / threads=12 / lookahead_threads=2 / sliced_threads=0 / nr=0 / decimate=1 / interlaced=0 / bluray_compat=0 / constrained_intra=0 / bframes=8 / b_pyramid=2 / b_adapt=2 / b_bias=0 / direct=3 / weightb=1 / open_gop=0 / weightp=2 / keyint=250 / keyint_min=25 / scenecut=40 / intra_refresh=0 / rc_lookahead=60 / rc=crf / mbtree=1 / crf=15.0 / qcomp=0.60 / qpmin=0 / qpmax=69 / qpstep=4 / vbv_maxrate=50000 / vbv_bufsize=50000 / crf_max=0.0 / nal_hrd=none / ip_ratio=1.40 / aq=1:0.60
Язык : Norwegian
Default : Да
Forced : Нет
Аудио #1
Идентификатор : 2
Формат : AC-3
Формат/Информация : Audio Coding 3
Расширение режима : CM (complete main)
Параметр Endianness формата : Big
Идентификатор кодека : A_AC3
Продолжительность : 1 ч. 36 м.
Вид битрейта : Постоянный
Битрейт : 448 Кбит/сек
Каналы : 6 каналов
Расположение каналов : Front: L C R, Side: L R, LFE
Частота : 48,0 КГц
Битовая глубина : 16 бит
Метод сжатия : С потерями
Размер потока : 308 Мбайт (6%)
Заголовок : VO den904
Язык : Russian
Default : Да
Forced : Нет
Аудио #2
Идентификатор : 3
Формат : AC-3
Формат/Информация : Audio Coding 3
Расширение режима : CM (complete main)
Параметр Endianness формата : Big
Идентификатор кодека : A_AC3
Продолжительность : 1 ч. 36 м.
Вид битрейта : Постоянный
Битрейт : 640 Кбит/сек
Каналы : 6 каналов
Расположение каналов : Front: L C R, Side: L R, LFE
Частота : 48,0 КГц
Битовая глубина : 16 бит
Метод сжатия : С потерями
Размер потока : 439 Мбайт (9%)
Язык : Norwegian
Default : Нет
Forced : Нет
Аудио #3
Идентификатор : 4
Формат : AC-3
Формат/Информация : Audio Coding 3
Расширение режима : CM (complete main)
Параметр Endianness формата : Big
Идентификатор кодека : A_AC3
Продолжительность : 1 ч. 36 м.
Вид битрейта : Постоянный
Битрейт : 224 Кбит/сек
Каналы : 2 канала
Расположение каналов : Front: L R
Частота : 48,0 КГц
Битовая глубина : 16 бит
Метод сжатия : С потерями
Размер потока : 154 Мбайт (3%)
Заголовок : Commentary
Язык : Norwegian
Default : Нет
Forced : Нет
Текст #1
Идентификатор : 5
Формат : UTF-8
Идентификатор кодека : S_TEXT/UTF8
Идентификатор кодека/Информация : UTF-8 Plain Text
Язык : Norwegian
Default : Нет
Forced : Нет
Текст #2
Идентификатор : 6
Формат : UTF-8
Идентификатор кодека : S_TEXT/UTF8
Идентификатор кодека/Информация : UTF-8 Plain Text
Язык : English
Default : Нет
Forced : Нет
Меню
00:00:00.000 : :1
00:12:57.440 : :2
00:25:37.000 : :3
00:38:40.559 : :4
00:52:40.279 : :5
01:04:22.239 : :6
01:18:16.680 : :7
01:33:32.599 : :8
-Скриншоты:
-Время раздачи: С 8:00 до 22:00 до 5 скачавших

[Цитировать]



Показать сообщения:    

Текущее время: 25-Мар 13:59

Часовой пояс: UTC + 6


Вы не можете начинать темы
Вы не можете отвечать на сообщения
Вы не можете редактировать свои сообщения
Вы не можете удалять свои сообщения
Вы не можете голосовать в опросах
Вы не можете прикреплять файлы к сообщениям
Вы не можете скачивать файлы

!ВНИМАНИЕ!
Сайт не предоставляет электронные версии произведений, а занимается лишь коллекционированием и каталогизацией ссылок, присылаемых и публикуемых на форуме нашими читателями. Если вы являетесь правообладателем какого-либо представленного материала и не желаете, чтобы ссылка на него находилась в нашем каталоге, свяжитесь с нами, и мы незамедлительно удалим ее. Файлы для обмена на трекере предоставлены пользователями сайта, и администрация не несет ответственности за их содержание. Просьба не заливать файлы, защищенные авторскими правами, а также файлы нелегального содержания!