[ Сегодня идет свободное скачивание без начисления Download ]


Статистика раздачи
Качаю: [ 1 ]
Скачал: [ 13 ]
 
   
 
Top  
 
 
Стартрек: Бесконечность / Star Trek Beyond
Информация о фильме
Название: Стартрек: Бесконечность
Оригинальное название: Star Trek Beyond
Год выхода: 2016
Жанр: фантастика, боевик, триллер, приключения
Режиссер: Джастин Лин
В ролях: Крис Пайн, Закари Куинто, Саймон Пегг, Карл Урбан, Зои Салдана, Джон Чо, Антон Ельчин, Идрис Эльба, София Бутелла, Джо Таслим
О фильме:
Спустя 2 года после начала пятилетней миссии, экипаж звёздного корабля «Энтерпрайз», во главе с капитаном Джеймсом Т. Кирком, были атакованы могущественной и опасной волной неизвестных пришельцев, которые уничтожают корабль, оставляя их без всего на новой неизведанной планете, где они оказываются в конфликте с новым безжалостным врагом...

Страна: США
Студия: Paramount Pictures, Bad Robot, Perfect Storm Entertainment, Skydance Productions, Sneaky Shark
Продолжительность: 02:02:48
Перевод: Профессиональный (полное дублирование) | чистый звук
Файл
Кодек: AVC
Качество: WEB-DL 1080р | Line
Видео: 1912x800 (2.40:1), 23.976 fps, MPEG-4 AVC ~4 555 kbps avg
Звук 1: 48 kHz, AC3 Dolby Digital, 2/0 (L,R) ch, ~448 kbps (Русский)
Звук 2: 48 kHz, AC3 Dolby Digital, 3/2 (L,C,R,l,r) + LFE ch, ~384 kbps (Английский)
Субтитры: Русский (Forced), Английский (Forced, Full)

Скриншоты

MediaInfo

General
Unique ID : 178760378754078052170019383352021830867 (0x867BFF2339B9846E82D3CB0992B94CD3)
Complete name : Star.Trek.Beyond.2016.WEB-DL.1080p.mkv
Format : Matroska
Format version : Version 4 / Version 2
File size : 4.61 GiB
Duration : 2 h 2 min
Overall bit rate : 5 372 kb/s
Encoded date : UTC 2016-10-10 17:05:27
Writing application : mkvmerge v9.4.2 ('So High') 64bit
Writing library : libebml v1.3.4 + libmatroska v1.4.5
Video
ID : 1
Format : AVC
Format/Info : Advanced Video Codec
Format profile : [email protected]
Format settings, CABAC : Yes
Format settings, ReFrames : 5 frames
Codec ID : V_MPEG4/ISO/AVC
Duration : 2 h 2 min
Bit rate : 4 555 kb/s
Width : 1 912 pixels
Height : 800 pixels
Display aspect ratio : 2.40:1
Frame rate mode : Constant
Frame rate : 23.976 (23976/1000) FPS
Color space : YUV
Chroma subsampling : 4:2:0
Bit depth : 8 bits
Scan type : Progressive
Bits/(Pixel*Frame) : 0.124
Stream size : 3.89 GiB (84%)
Language : English
Default : Yes
Forced : No
Color range : Limited
Color primaries : BT.709
Transfer characteristics : BT.709
Matrix coefficients : BT.709
Audio #1
ID : 2
Format : AC-3
Format/Info : Audio Coding 3
Mode extension : CM (complete main)
Format settings, Endianness : Big
Codec ID : A_AC3
Duration : 2 h 2 min
Bit rate mode : Constant
Bit rate : 448 kb/s
Channel(s) : 2 channels
Channel positions : Front: L R
Sampling rate : 48.0 kHz
Frame rate : 31.250 FPS (1536 spf)
Compression mode : Lossy
Stream size : 394 MiB (8%)
Language : Russian
Default : Yes
Forced : No
Audio #2
ID : 3
Format : AC-3
Format/Info : Audio Coding 3
Mode extension : CM (complete main)
Format settings, Endianness : Big
Codec ID : A_AC3
Duration : 2 h 2 min
Bit rate mode : Constant
Bit rate : 384 kb/s
Channel(s) : 6 channels
Channel positions : Front: L C R, Side: L R, LFE
Sampling rate : 48.0 kHz
Frame rate : 31.250 FPS (1536 spf)
Compression mode : Lossy
Stream size : 336 MiB (7%)
Language : English
Default : No
Forced : No
Text #1
ID : 4
Format : UTF-8
Codec ID : S_TEXT/UTF8
Codec ID/Info : UTF-8 Plain Text
Duration : 59 min
Bit rate : 1 b/s
Count of elements : 15
Stream size : 675 Bytes (0%)
Title : Forced
Language : Russian
Default : Yes
Forced : Yes
Text #2
ID : 5
Format : UTF-8
Codec ID : S_TEXT/UTF8
Codec ID/Info : UTF-8 Plain Text
Duration : 59 min
Bit rate : 0 b/s
Count of elements : 15
Stream size : 365 Bytes (0%)
Title : Forced
Language : English
Default : No
Forced : No
Text #3
ID : 6
Format : UTF-8
Codec ID : S_TEXT/UTF8
Codec ID/Info : UTF-8 Plain Text
Duration : 1 h 51 min
Bit rate : 53 b/s
Count of elements : 1280
Stream size : 44.1 KiB (0%)
Language : English
Default : No
Forced : No
Menu
00:00:00.000 : en:Chapter 1
00:08:25.000 : en:Chapter 2
00:16:10.000 : en:Chapter 3
00:32:37.000 : en:Chapter 4
00:42:15.000 : en:Chapter 5
00:52:21.000 : en:Chapter 6
00:59:49.000 : en:Chapter 7
01:12:04.000 : en:Chapter 8
01:22:33.000 : en:Chapter 9
01:33:00.000 : en:Chapter 10
01:40:32.000 : en:Chapter 11
01:47:38.000 : en:Chapter 12
01:52:31.000 : en:Chapter 13
01:55:40.000 : en:Chapter 14

[Цитировать]

Фильм снят для просмотра на большом экране и лучше смотреть в IMAX, кино смотрица лекго, мозги не напрягает. Полетели, получили по полной, завели старое корыто, догнали и отомстили с музыкой. В фильме Морской бой так же на старом корабле воевали. Эмоционально фильм не зацепил, просто красивые картинки про космос. bronzemedal

[Цитировать]



Показать сообщения:    

Текущее время: 06-Дек 05:55

Часовой пояс: UTC + 3


Вы не можете начинать темы
Вы не можете отвечать на сообщения
Вы не можете редактировать свои сообщения
Вы не можете удалять свои сообщения
Вы не можете голосовать в опросах
Вы не можете прикреплять файлы к сообщениям
Вы не можете скачивать файлы

!ВНИМАНИЕ!
Сайт не предоставляет электронные версии произведений, а занимается лишь коллекционированием и каталогизацией ссылок, присылаемых и публикуемых на форуме нашими читателями. Если вы являетесь правообладателем какого-либо представленного материала и не желаете, чтобы ссылка на него находилась в нашем каталоге, свяжитесь с нами, и мы незамедлительно удалим ее. Файлы для обмена на трекере предоставлены пользователями сайта, и администрация не несет ответственности за их содержание. Просьба не заливать файлы, защищенные авторскими правами, а также файлы нелегального содержания!