[ Сегодня идет свободное скачивание без начисления Download ]


Статистика раздачи
Нет
 
   
 
Top  
 
 
И гаснет свет... / Lights Out
Информация о фильме
Название: И гаснет свет...
Оригинальное название: Lights Out
Год выхода: 2016
Жанр: Ужасы
Режиссер: Дэвид Ф. Сандберг
В ролях: Тереза Палмер, Гэбриел Бейтман, Александр ДиПерсиа, Билли Бёрк, Мария Белло, Алисия Вела-Бэйли, Энди Ошо, Роландо Бойс, Мария Расселл, Элизабет Пан
О фильме:
Когда Ребекка покинула родной дом, она думала, что её детские страхи остались позади. Ребенком она никогда не была уверена, что реально, а что нет, когда гас свет, и теперь её младший брат Мартин переживает те же необъяснимые и ужасные события, которые когда-то испытывали на прочность её рассудок и угрожали её безопасности. Пугающее нечто, таинственным образом привязанное к их матери Софи, появилось вновь. Но на этот раз Ребекка подбирается к разгадке истины, и уже не остается сомнений в том, что их жизни в опасности, как только будет погашен свет.

Страна: США
Студия: New Line Cinema
Продолжительность: 01:20:55
Перевод: Дублированный | iTunes
Файл
Кодек: MPEG-4
Качество: WEB-DL 1080p
Видео: 1916x796, 4604 Kbit/s, 23.976 fps
Звук:
Аудио #01: 48 kHz, AC3, 5.1, 384 Kbps | Дублированный | iTunes |
Аудио #02: 48 kHz, AC3, 5.1, 384 kbps | Оригинал |

MI

General
Unique ID : 209149703797288331744251987275676788016 (0x9D58C48AA0B542B59D7BDE2812222530)
Complete name : H:VideoLights.Out.2016.WEB-DL.1080p.ExKinoRay.mkv
Format : Matroska
Format version : Version 4 / Version 2
File size : 3.04 GiB
Duration : 1 h 20 min
Overall bit rate : 5 375 kb/s
Encoded date : UTC 2016-10-11 19:28:33
Writing application : mkvmerge v8.3.0 ('Over the Horizon') 64bit
Writing library : libebml v1.3.1 + libmatroska v1.4.2
Video
ID : 1
Format : AVC
Format/Info : Advanced Video Codec
Format profile : High@L4
Format settings, CABAC : Yes
Format settings, ReFrames : 5 frames
Codec ID : V_MPEG4/ISO/AVC
Duration : 1 h 20 min
Bit rate : 4 604 kb/s
Width : 1 916 pixels
Height : 796 pixels
Display aspect ratio : 2.40:1
Frame rate mode : Constant
Frame rate : 23.976 (23976/1000) FPS
Color space : YUV
Chroma subsampling : 4:2:0
Bit depth : 8 bits
Scan type : Progressive
Bits/(Pixel*Frame) : 0.126
Stream size : 2.60 GiB (86%)
Language : English
Default : Yes
Forced : No
Color range : Limited
Color primaries : BT.709
Transfer characteristics : BT.709
Matrix coefficients : BT.709
Audio #1
ID : 2
Format : AC-3
Format/Info : Audio Coding 3
Mode extension : CM (complete main)
Format settings, Endianness : Big
Codec ID : A_AC3
Duration : 1 h 20 min
Bit rate mode : Constant
Bit rate : 384 kb/s
Channel(s) : 6 channels
Channel positions : Front: L C R, Side: L R, LFE
Sampling rate : 48.0 kHz
Frame rate : 31.250 FPS (1536 spf)
Compression mode : Lossy
Stream size : 222 MiB (7%)
Title : iTunes
Language : Russian
Default : Yes
Forced : No
Audio #2
ID : 3
Format : AC-3
Format/Info : Audio Coding 3
Mode extension : CM (complete main)
Format settings, Endianness : Big
Codec ID : A_AC3
Duration : 1 h 20 min
Bit rate mode : Constant
Bit rate : 384 kb/s
Channel(s) : 6 channels
Channel positions : Front: L C R, Side: L R, LFE
Sampling rate : 48.0 kHz
Frame rate : 31.250 FPS (1536 spf)
Compression mode : Lossy
Stream size : 222 MiB (7%)
Language : English
Default : No
Forced : No
Menu
00:00:00.000 : en:1
00:10:01.000 : en:2
00:21:07.000 : en:3
00:30:12.000 : en:4
00:40:57.000 : en:5
00:50:38.000 : en:6
00:58:43.000 : en:7
01:09:54.000 : en:8
01:16:20.000 : en:9

Скриншоты

[Цитировать]



Показать сообщения:    

Текущее время: 19-Янв 01:20

Часовой пояс: UTC + 3


Вы не можете начинать темы
Вы не можете отвечать на сообщения
Вы не можете редактировать свои сообщения
Вы не можете удалять свои сообщения
Вы не можете голосовать в опросах
Вы не можете прикреплять файлы к сообщениям
Вы не можете скачивать файлы

!ВНИМАНИЕ!
Сайт не предоставляет электронные версии произведений, а занимается лишь коллекционированием и каталогизацией ссылок, присылаемых и публикуемых на форуме нашими читателями. Если вы являетесь правообладателем какого-либо представленного материала и не желаете, чтобы ссылка на него находилась в нашем каталоге, свяжитесь с нами, и мы незамедлительно удалим ее. Файлы для обмена на трекере предоставлены пользователями сайта, и администрация не несет ответственности за их содержание. Просьба не заливать файлы, защищенные авторскими правами, а также файлы нелегального содержания!