[ Сегодня идет свободное скачивание без начисления Download ]


Статистика раздачи
Скачал: [ 1 ]
 
   
 
Top  
 
 
Крутые меры / Bastille Day
Страна: Великобритания Франция США
Производство: Canal+ [fr], TF1, Vendome Pictures, Anonymous Content, Amazon Prime Instant Video, ACE
Год выпуска: 2016
Жанр: боевик, драма
Продолжительность: 01:31:49
Режиссер: Джеймс Уоткинс
Авторы сценария: Эндрю Болдуин, Джеймс Уоткинс
В ролях: Идрис Эльба, Ричард Мэдден, Келли Райлли, Шарлотта Ле Бон, Анатол Юсеф, Хорхе Леон Мартинес, Хосе Гарсия, Александр Купер, Карл Фаррер
Описание: Ловкий карманник Майкл Мэйсон привлекает внимание полиции и спецслужб, когда крадёт сумку, содержащую гораздо больше, чем просто бумажник. На его след выходит дерзкий и резкий спецагент ЦРУ Шон Брайар. Вдвоем они становятся мишенью тайной преступной организации и в течение суток должны вывести злоумышленников на чистую воду...

Перевод: Профессиональный (полное дублирование) | iTunes
Субтитры: английские (full + SDH)-Качество: BDRip-AVC | исходник Bastille.Day.2016.1080p.BluRay.REMUX.AVC.DTS-HD.MA.TrueHD.7.1.Atmos-FGT
Формат: МКV
Видео кодек: AVC
Аудио кодек: АС3
Видео: 1024x428 (2.40:1), 24.000 fps, MPEG-4 AVC ~1 750 kbps avg
Аудио: 48.0 kHz, AC3 Dolby Digital, 3/2 (L,C,R,l,r) + LFE ch, ~384 kbps
Формат субтитров: UTF-8 Plain Text
Дата премьеры (мир): 20 апреля 2016
Дата премьеры (РФ): 28 июля 2016, «Вольга»

Релиз от: AFM

Media Info

General
Format : Matroska
Format version : Version 4 / Version 2
File size : 1.40 GiB
Duration : 1h 31 min
Overall bit rate : 2 178 kb/s
Movie name : Крутые меры / Bastille Day (2016) :: AFM::
Encoded date : UTC 2016-10-09 20:29:15
Writing application : mkvmerge v8.3.0 ('Over the Horizon') 32bit
Writing library : libebml v1.3.1 + libmatroska v1.4.2
Video
ID : 1
Format : AVC
Format/Info : Advanced Video Codec
Format profile : High@L4.1
Format settings, CABAC : Yes
Format settings, ReFrames : 11 frames
Codec ID : V_MPEG4/ISO/AVC
Duration : 1h 31 min
Bit rate : 1 750 kb/s
Width : 1 024 pixels
Height : 428 pixels
Display aspect ratio : 2.40:1
Frame rate mode : Constant
Frame rate : 24.000 FPS
Color space : YUV
Chroma subsampling : 4:2:0
Bit depth : 8 bits
Scan type : Progressive
Bits/(Pixel*Frame) : 0.166
Stream size : 1.12 GiB (80%)
Writing library : x264 core 148 r2705+54 9f484c1 t_mod_Custom [8-bit@all X86_64]
Encoding settings : cabac=1 / ref=11 / deblock=1:-2:-2 / analyse=0x3:0x113 / me=umh / subme=10 / psy=1 / fade_compensate=0.00 / psy_rd=1.00:0.00 / mixed_ref=1 / me_range=32 / chroma_me=1 / trellis=2 / 8x8dct=1 / cqm=0 / deadzone=21,11 / fast_pskip=0 / chroma_qp_offset=-2 / threads=6 / lookahead_threads=1 / sliced_threads=0 / nr=0 / decimate=1 / interlaced=0 / bluray_compat=0 / constrained_intra=0 / fgo=0 / bframes=14 / b_pyramid=2 / b_adapt=2 / b_bias=0 / direct=1 / weightb=1 / open_gop=0 / weightp=2 / keyint=250 / keyint_min=23 / scenecut=40 / intra_refresh=0 / rc_lookahead=40 / rc=crf / mbtree=0 / crf=17.8000 / qcomp=0.65 / qpmin=0:0:0 / qpmax=69:69:69 / qpstep=4 / vbv_maxrate=50000 / vbv_bufsize=62500 / crf_max=0.0 / nal_hrd=none / filler=0 / ip_ratio=1.35 / pb_ratio=1.30 / aq=3:0.80 / aq-sensitivity=10.00 / aq-factor=1.00:1.00:1.00 / aq2=0 / aq3=0
Language : English
Default : Yes
Forced : No
Audio
ID : 2
Format : AC-3
Format/Info : Audio Coding 3
Mode extension : CM (complete main)
Format settings, Endianness : Big
Codec ID : A_AC3
Duration : 1h 31 min
Bit rate mode : Constant
Bit rate : 384 kb/s
Channel(s) : 6 channels
Channel positions : Front: L C R, Side: L R, LFE
Sampling rate : 48.0 kHz
Frame rate : 31.250 FPS (1536 spf)
Compression mode : Lossy
Stream size : 252 MiB (18%)
Title : Dub, AС3 5.1 ~384 kbps
Language : Russian
Default : Yes
Forced : No
Text #1
ID : 3
Format : UTF-8
Codec ID : S_TEXT/UTF8
Codec ID/Info : UTF-8 Plain Text
Language : English
Default : No
Forced : No
Text #2
ID : 4
Format : UTF-8
Codec ID : S_TEXT/UTF8
Codec ID/Info : UTF-8 Plain Text
Title : SDH
Language : English
Default : No
Forced : No
Menu
00:00:00.000 : en:Chapter 01
00:08:06.500 : en:Chapter 02
00:16:39.458 : en:Chapter 03
00:24:20.625 : en:Chapter 04
00:33:04.500 : en:Chapter 05
00:41:04.125 : en:Chapter 06
00:48:37.500 : en:Chapter 07
00:57:03.375 : en:Chapter 08
01:07:59.250 : en:Chapter 09
01:16:54.458 : en:Chapter 10
01:21:42.916 : en:Chapter 11
01:25:27.208 : en:Chapter 12

Скриншоты

[Цитировать]



Показать сообщения:    

Текущее время: 02-Дек 21:07

Часовой пояс: UTC + 3


Вы не можете начинать темы
Вы не можете отвечать на сообщения
Вы не можете редактировать свои сообщения
Вы не можете удалять свои сообщения
Вы не можете голосовать в опросах
Вы не можете прикреплять файлы к сообщениям
Вы не можете скачивать файлы

!ВНИМАНИЕ!
Сайт не предоставляет электронные версии произведений, а занимается лишь коллекционированием и каталогизацией ссылок, присылаемых и публикуемых на форуме нашими читателями. Если вы являетесь правообладателем какого-либо представленного материала и не желаете, чтобы ссылка на него находилась в нашем каталоге, свяжитесь с нами, и мы незамедлительно удалим ее. Файлы для обмена на трекере предоставлены пользователями сайта, и администрация не несет ответственности за их содержание. Просьба не заливать файлы, защищенные авторскими правами, а также файлы нелегального содержания!