[ Сегодня идет свободное скачивание без начисления Download ]


Статистика раздачи
Нет
 
   
 
Top  
 
 
-Поворот не туда 5: Кровное родство / Wrong Turn 5: Bloodlines (2012) BDRip-«The inbred hillbillies are back!»- Русское название: Поворот не туда 5: Кровное родство
Оригинальное название: Wrong Turn 5: Bloodlines
Год выпуска: 2012
Производство: США / 20th Century Fox Home Entertainment
Жанр: Ужасы, Триллер
Перевод: Профессиональный (многоголосый) [лицензия]
Язык субтитров: Русские, Английские
Вид субтитров: Вшитые отключаемые-Дата мировой премьеры: 23 октября 2012-Режиссер: Деклан О’Брайэн
Продюсер: Джеффри Бич, Филлип Дж. Рот, Чериз Хони
Актеры: Камилла Арфведсон, Даг Брэдли, Оливер Хоар, Роксанна МакКи, Эми Леннокс, Дункан Уисби, Радослав Парванов, Джордж Карлуковский-Описание фильма:
Маленький городок в Западной Вирджинии проводит ежегодный фестиваль «Горный человек», посвящённый Хэллоуину. Туда направляется группа студентов колледжа, однако они не подозревают, что шумная костюмированная вечеринка с музыкой и выпивкой обернётся для них кровавым кошмаром — на фестиваль направляется семья горных каннибалов.- -Продолжительность: 01:30:48
Качество видео: BDRip-Видеокодек: MPEG-4 AVC/H.264
Битрейт видео: ~10.9 Мбит/с
Размер кадра: 1920x1080
Аудио#1: AC3, 6 ch, 384 Кбит/c | Русский
Аудио#2: DTS, 6 ch, 1510 Кбит/c | Английский

MediaInfo

Общее
Уникальный идентификатор : 174685124527828347147860359118759517744 (0x836B21976B2EF8B2B6D8D27C9A39DE30)
Полное имя : D:\торрент-раздачи\Povorot.ne.tuda.5.2012.P.BDRip.1080p.mkv
Формат : Matroska
Версия формата : Version 2
Размер файла : 8,16 Гбайт
Продолжительность : 1 ч. 30 м.
Общий поток : 12,9 Мбит/сек
Название фильма : Wrong Turn 5
Дата кодирования : UTC 2012-12-01 13:52:34
Программа кодирования : mkvmerge v4.9.1 ('Ich will') сборка от Jul 11 2011 23:53:15
Библиотека кодирования : libebml v1.2.1 + libmatroska v1.1.1
Видео
Идентификатор : 1
Формат : AVC
Формат/Информация : Advanced Video Codec
Профиль формата : [email protected]
Параметр CABAC формата : Да
Параметр ReFrames формата : 4 кадра
Идентификатор кодека : V_MPEG4/ISO/AVC
Продолжительность : 1 ч. 30 м.
Битрейт : 11,0 Мбит/сек
Ширина : 1920 пикселей
Высота : 1080 пикселей
Соотношение сторон : 16:9
Режим частоты кадров : Постоянный
Частота кадров : 23,976 кадра/сек
Цветовое пространство : YUV
Субдискретизация насыщенности : 4:2:0
Битовая глубина : 8 бит
Тип развёртки : Прогрессивная
Бит/(Пиксели*Кадры) : 0.221
Размер потока : 6,79 Гбайт (83%)
Заголовок : Wrong.Turn.5.2012.BluRay.1080p.DTS.x264-CHD
Библиотека кодирования : x264 core 120 r2164+656 2ff844c
Настройки программы : cabac=1 / ref=4 / deblock=1:-3:-3 / analyse=0x3:0x113 / me=umh / subme=10 / psy=1 / fade_compensate=0.00 / psy_rd=1.05:0.10 / mixed_ref=1 / me_range=48 / chroma_me=1 / trellis=2 / 8x8dct=1 / cqm=0 / deadzone=21,11 / fast_pskip=0 / chroma_qp_offset=-2 / threads=12 / sliced_threads=0 / nr=0 / decimate=1 / interlaced=0 / bluray_compat=0 / constrained_intra=0 / fgo=0 / bframes=6 / b_pyramid=2 / b_adapt=2 / b_bias=0 / direct=3 / weightb=1 / open_gop=0 / weightp=2 / keyint=250 / keyint_min=23 / scenecut=40 / intra_refresh=0 / rc_lookahead=40 / rc=2pass / mbtree=0 / bitrate=10982 / ratetol=2.0 / qcomp=0.70 / qpmin=0 / qpmax=69 / qpstep=4 / cplxblur=20.0 / qblur=0.5 / vbv_maxrate=40000 / vbv_bufsize=30000 / nal_hrd=none / ip_ratio=1.40 / pb_ratio=1.30 / aq=2:1.00
Язык : English
Default : Да
Forced : Да
Аудио #1
Идентификатор : 2
Формат : AC-3
Формат/Информация : Audio Coding 3
Расширение режима : CM (complete main)
Параметр Endianness формата : Big
Идентификатор кодека : A_AC3
Продолжительность : 1 ч. 30 м.
Вид битрейта : Постоянный
Битрейт : 384 Кбит/сек
Каналы : 6 каналов
Расположение каналов : Front: L C R, Side: L R, LFE
Частота : 48,0 КГц
Битовая глубина : 16 бит
Метод сжатия : С потерями
Размер потока : 249 Мбайт (3%)
Заголовок : DD 5.1 @ 384 kbps - MVO, R5
Язык : Russian
Default : Да
Forced : Да
Аудио #2
Идентификатор : 3
Формат : DTS
Формат/Информация : Digital Theater Systems
Режим : 16
Параметр Endianness формата : Big
Идентификатор кодека : A_DTS
Продолжительность : 1 ч. 30 м.
Вид битрейта : Постоянный
Битрейт : 1509 Кбит/сек
Каналы : 6 каналов
Расположение каналов : Front: L C R, Side: L R, LFE
Частота : 48,0 КГц
Битовая глубина : 24 бит
Метод сжатия : С потерями
Размер потока : 980 Мбайт (12%)
Заголовок : DTS 5.1 @ 1536 kbps
Язык : English
Default : Нет
Forced : Нет
Текст #1
Идентификатор : 4
Формат : UTF-8
Идентификатор кодека : S_TEXT/UTF8
Идентификатор кодека/Информация : UTF-8 Plain Text
Заголовок : R5
Язык : Russian
Default : Нет
Forced : Нет
Текст #2
Идентификатор : 5
Формат : UTF-8
Идентификатор кодека : S_TEXT/UTF8
Идентификатор кодека/Информация : UTF-8 Plain Text
Язык : English
Default : Нет
Forced : Нет
Меню
00:00:00.000 : en:Chapter 1
00:03:35.006 : en:Chapter 2
00:06:41.109 : en:Chapter 3
00:09:45.293 : en:Chapter 4
00:13:38.526 : en:Chapter 5
00:16:56.474 : en:Chapter 6
00:18:38.909 : en:Chapter 7
00:22:32.893 : en:Chapter 8
00:26:03.437 : en:Chapter 9
00:29:27.224 : en:Chapter 10
00:34:49.838 : en:Chapter 11
00:39:19.440 : en:Chapter 12
00:44:08.646 : en:Chapter 13
00:48:06.217 : en:Chapter 14
00:53:11.814 : en:Chapter 15
00:59:35.197 : en:Chapter 16
01:03:13.123 : en:Chapter 17
01:06:56.304 : en:Chapter 18
01:09:44.639 : en:Chapter 19
01:12:32.640 : en:Chapter 20
01:17:43.701 : en:Chapter 21
01:19:31.767 : en:Chapter 22
01:20:46.842 : en:Chapter 23
01:26:21.802 : en:Chapter 24
Скриншоты:
Время раздачи: 24/7

[Цитировать]



Показать сообщения:    

Текущее время: 06-Дек 20:59

Часовой пояс: UTC + 3


Вы не можете начинать темы
Вы не можете отвечать на сообщения
Вы не можете редактировать свои сообщения
Вы не можете удалять свои сообщения
Вы не можете голосовать в опросах
Вы не можете прикреплять файлы к сообщениям
Вы не можете скачивать файлы

!ВНИМАНИЕ!
Сайт не предоставляет электронные версии произведений, а занимается лишь коллекционированием и каталогизацией ссылок, присылаемых и публикуемых на форуме нашими читателями. Если вы являетесь правообладателем какого-либо представленного материала и не желаете, чтобы ссылка на него находилась в нашем каталоге, свяжитесь с нами, и мы незамедлительно удалим ее. Файлы для обмена на трекере предоставлены пользователями сайта, и администрация не несет ответственности за их содержание. Просьба не заливать файлы, защищенные авторскими правами, а также файлы нелегального содержания!