[ Сегодня идет свободное скачивание без начисления Download ]


Статистика раздачи
Нет
 
   
 
Top  
 
 
-От Прометея к Чужому. Эволюция / Prometheus to Alien: The Evolution (2012) BDRip- -Русское название: От Прометея к Чужому. Эволюция
Оригинальное название: Prometheus to Alien: The Evolution
Год выпуска: 2012
Производство: 20th Century Fox
Жанр: Ужасы, Фантастика, Боевик, Триллер
Перевод: Дублированный
Язык субтитров: Русский, Украинский, Английский, Французский, Португальский
Вид субтитров: Вшитые отключаемые
Дата выхода в кинопрокат: 1979, 1986, 1992, 1997, 2012
Дата выхода Blu-Ray релиза: 4 октября 2012 «20th Century Fox»
Режиссеры: Ридли Скотт, Джеймс Кэмерон, Дэвид Финчер, Жан-Пьер Жене
Актеры: Сигурни Уивер, Майкл Фассбендер Шарлиз Терон, Нуми Рапас, Джон Херт, , Лэнс Хенриксен ...
Описание фильма:
Пенталогия "от Прометея к Чужому. Эволюция" включает квадрологию Чужой, новый фильм Ридли Скотта Прометей.
Отправься в величайшее путешествие вместе с пенталогией "От Прометея к Чужому Эволюция". История начинается с Прометея, где Шарлиз Терон, Майкл Фассбиндер и Нуми Рапас в поисках происхождения человечества сталкиваются с таинственными «Космическими жокеями», способными уничтожить все население Земли.
Затем Сигурни Уивер будет сражаться против самых ужасных созданий в истории кинематографа во всех четырех захватывающих частях Чужих – Чужом, Чужих, Чужом 3 и Чужом: Воскрешение. Эта невероятная научно-фантастическая коллекция, включающая 65 часов будоражащих дополнительных материалов, позволяет заглянуть в самые темные уголки вселенной... познать самые глубины воображения!
Видеокодек: MPEG-4 AVC/H.264
Битрейт видео: ~ 12,0 Мбит/сек
Размер кадра: 1920 x 800 (2.400), 1920 x 816 (2.353), 1920 x 1040 (1.846)
Качество видео: BDRip 1080p
Аудиокодек: AC3 5.1 | DTS
Аудио #1: DTS 755 Кбит/сек (6ch), 48,0 КГц, 24 бит [Русский, дубляж]
Аудио #2: AC3 448 Кбит/сек (2ch), 48,0 КГц, 16 бит [Украинский, дубляж] (Прометей)
Аудио #3: DTS 1510 Кбит/сек (6ch), 48,0 КГц, 24 бит [Английский]
Релиз :
Прометей / Prometheus (2012) BDRip
«Они искали колыбель человечества, но нашли его погибель»
- Русское название: Прометей
Оригинальное название: Prometheus
Год выпуска: 2012
Производство: США, Великобритания
Жанр: Фантастика, Детектив, Приключения
Перевод: Дублированный
Субтитры: Вшитые отключаемые
Язык субтитров: Русский, Украинский, Английский, Французский, Португальский-Дата мировой премьеры: 30 мая 2012
Дата российской премьеры: 31 мая 2012, «Двадцатый Век Фокс СНГ»
Дата выхода DVD релиза: 4 октября 2012, «Двадцатый Век Фокс СНГ»
Дата выхода Blu-Ray релиза: 4 октября 2012, «Двадцатый Век Фокс СНГ»-Режиссер: Ридли Скотт-Продюсер: Дэвид Гайлер, Уолтер Хилл, Ридли Скотт-Актеры: Нуми Рапас, Майкл Фассбендер, Шарлиз Терон, Идрис Эльба, Гай Пирс, Логан Маршалл-Грин, Шон Харрис, Рейф Сполл, Иман Эллиотт, Бенедикт Вонг ...-Роли дублировали: Ольга Сирина, Илья Исаев,Татьяна Шитова, Александр Груздев, Александр Пожаров ...-Описание фильма:
В поисках сакрального знания группа ученых отправляется в самые темные и неизведанные чертоги вселенной. Именно там, в отдаленных мирах, находясь на пределе своих умственных и физических возможностей, им предстоит вступить в безжалостную схватку за будущее всего человечества…-
Продолжительность: 02:03:46
Качество видео: BDRip 1080p
Видеокодек: MPEG-4 AVC/H.264
Битрейт видео: ~12,0 Мбит/сек
Размер кадра: 1920 x 800 (2.400) at 23.976 fps : 0.326 Bits/Pixel
Аудиокодек: AC3 5.1 | DTS
Аудио #1: DTS 755 Кбит/сек (6ch), 48,0 КГц, 24 бит [Русский, дубляж]
Аудио #2: AC3 448 Кбит/сек (2ch), 48,0 КГц, 16 бит [Украинский, дубляж]
Аудио #3: DTS 1510 Кбит/сек (6ch), 48,0 КГц, 24 бит [Английский]

MediaInfo:

Полное имя                               : E:\VIDEO\От Прометея к Чужому. Эволюция\Prometheus.to.Alien.The.Evolution.1979-2012.BDRip.1080p.NNM-CLUB\1.Prometheus.2012.D.BDRip.1080p.GIU.mkv
Формат                                   : Matroska
Версия формата                           : Version 2
Размер файла                             : 12,7 Гбайт
Продолжительность                        : 2 ч. 3 м.
Общий поток                              : 14,7 Мбит/сек
Название фильма                          : Prometheus.2012.D.BDRip.1080p
Дата кодирования                         : UTC 2012-10-24 18:21:28
Программа кодирования                    : mkvmerge v2.9.9 ('Tutu') built on Nov 25 2009 21:13:32
Библиотека кодирования                   : libebml v0.7.9 + libmatroska v0.8.1
Видео
Идентификатор                            : 1
Формат                                   : AVC
Формат/Информация                        : Advanced Video Codec
Профиль формата                          : [url=mailto:[email protected]][email protected][/url]
Параметр CABAC формата                   : Да
Параметр ReFrames формата                : 5 кадров
Идентификатор кодека                     : V_MPEG4/ISO/AVC
Битрейт                                  : 12,0 Мбит/сек
Ширина                                   : 1920 пикселей
Высота                                   : 800 пикселей
Соотношение сторон                       : 2,40:1
Режим частоты кадров                     : Переменный
Частота кадров в оригинале               : 23,976 кадра/сек
Цветовое пространство                    : YUV
Субдискретизация насыщенности            : 4:2:0
Битовая глубина                          : 8 бит
Тип развёртки                            : Прогрессивная
Бит/(Пиксели*Кадры)                      : 0.326
Заголовок                                : -=Release by GIU=-
Библиотека кодирования                   : x264 core 116 r2074 2641b9e
Настройки программы                      : cabac=1 / ref=5 / deblock=1:-3:-3 / analyse=0x3:0x113 / me=umh / subme=11 / psy=1 / psy_rd=1.00:0.00 / mixed_ref=1 / me_range=32 / chroma_me=1 / trellis=2 / 8x8dct=1 / cqm=0 / deadzone=21,11 / fast_pskip=1 / chroma_qp_offset=-2 / threads=12 / sliced_threads=0 / nr=0 / decimate=1 / interlaced=0 / bluray_compat=0 / constrained_intra=0 / bframes=10 / b_pyramid=2 / b_adapt=2 / b_bias=0 / direct=3 / weightb=1 / open_gop=0 / weightp=2 / keyint=250 / keyint_min=10 / scenecut=40 / intra_refresh=0 / rc_lookahead=50 / rc=2pass / mbtree=1 / bitrate=12000 / ratetol=1.0 / qcomp=0.80 / qpmin=10 / qpmax=51 / qpstep=4 / cplxblur=20.0 / qblur=0.5 / ip_ratio=1.40 / aq=1:1.00
Язык                                     : English
Default                                  : Нет
Forced                                   : Нет
Аудио #1
Идентификатор                            : 2
Формат                                   : DTS
Формат/Информация                        : Digital Theater Systems
Идентификатор кодека                     : A_DTS
Продолжительность                        : 2 ч. 3 м.
Вид битрейта                             : Постоянный
Битрейт                                  : 755 Кбит/сек
Каналы                                   : 6 каналов
Расположение каналов                     : Front: L C R, Side: L R, LFE
Частота                                  : 48,0 КГц
Битовая глубина                          : 24 бит
Метод сжатия                             : С потерями
Задержка видео                           : 11 мс.
Размер потока                            : 668 Мбайт (5%)
Заголовок                                : DTS.755.Kbps.Russian
Язык                                     : Russian
Default                                  : Нет
Forced                                   : Нет
Аудио #2
Идентификатор                            : 3
Формат                                   : AC-3
Формат/Информация                        : Audio Coding 3
Расширение режима                        : CM (complete main)
Параметр Endianness формата              : Big
Идентификатор кодека                     : A_AC3
Продолжительность                        : 2 ч. 3 м.
Вид битрейта                             : Постоянный
Битрейт                                  : 448 Кбит/сек
Каналы                                   : 6 каналов
Расположение каналов                     : Front: L C R, Side: L R, LFE
Частота                                  : 48,0 КГц
Битовая глубина                          : 16 бит
Метод сжатия                             : С потерями
Размер потока                            : 397 Мбайт (3%)
Заголовок                                : AC3.448Kbps.Ukrainian
Язык                                     : Ukrainian
Default                                  : Нет
Forced                                   : Нет
Аудио #3
Идентификатор                            : 4
Формат                                   : DTS
Формат/Информация                        : Digital Theater Systems
Идентификатор кодека                     : A_DTS
Продолжительность                        : 2 ч. 3 м.
Вид битрейта                             : Постоянный
Битрейт                                  : 1510 Кбит/сек
Каналы                                   : 6 каналов
Расположение каналов                     : Front: L C R, Side: L R, LFE
Частота                                  : 48,0 КГц
Битовая глубина                          : 24 бит
Метод сжатия                             : С потерями
Задержка видео                           : 11 мс.
Размер потока                            : 1,31 Гбайт (10%)
Заголовок                                : DTS.1510.Kbps.English
Язык                                     : English
Default                                  : Нет
Forced                                   : Нет
Текст #1
Идентификатор                            : 5
Формат                                   : UTF-8
Идентификатор кодека                     : S_TEXT/UTF8
Идентификатор кодека/Информация          : UTF-8 Plain Text
Заголовок                                : Russian (Full)
Язык                                     : Russian
Default                                  : Да
Forced                                   : Нет
Текст #2
Идентификатор                            : 6
Формат                                   : UTF-8
Идентификатор кодека                     : S_TEXT/UTF8
Идентификатор кодека/Информация          : UTF-8 Plain Text
Заголовок                                : Russian (Forced)
Язык                                     : Russian
Default                                  : Нет
Forced                                   : Нет
Текст #3
Идентификатор                            : 7
Формат                                   : UTF-8
Идентификатор кодека                     : S_TEXT/UTF8
Идентификатор кодека/Информация          : UTF-8 Plain Text
Заголовок                                : Russian (Commentary - Джoн Cпэйтc)
Язык                                     : Russian
Default                                  : Нет
Forced                                   : Нет
Текст #4
Идентификатор                            : 8
Формат                                   : UTF-8
Идентификатор кодека                     : S_TEXT/UTF8
Идентификатор кодека/Информация          : UTF-8 Plain Text
Заголовок                                : Ukrainian (Full)
Язык                                     : Ukrainian
Default                                  : Нет
Forced                                   : Нет
Текст #5
Идентификатор                            : 9
Формат                                   : UTF-8
Идентификатор кодека                     : S_TEXT/UTF8
Идентификатор кодека/Информация          : UTF-8 Plain Text
Заголовок                                : Ukrainian (Forced)
Язык                                     : Ukrainian
Default                                  : Нет
Forced                                   : Нет
Текст #6
Идентификатор                            : 10
Формат                                   : UTF-8
Идентификатор кодека                     : S_TEXT/UTF8
Идентификатор кодека/Информация          : UTF-8 Plain Text
Заголовок                                : English (Full)
Язык                                     : English
Default                                  : Нет
Forced                                   : Нет
Текст #7
Идентификатор                            : 11
Формат                                   : UTF-8
Идентификатор кодека                     : S_TEXT/UTF8
Идентификатор кодека/Информация          : UTF-8 Plain Text
Заголовок                                : French (Full)
Язык                                     : French
Default                                  : Нет
Forced                                   : Нет
Текст #8
Идентификатор                            : 12
Формат                                   : UTF-8
Идентификатор кодека                     : S_TEXT/UTF8
Идентификатор кодека/Информация          : UTF-8 Plain Text
Заголовок                                : Portuguese (Full)
Язык                                     : Portuguese
Default                                  : Нет
Forced                                   : Нет
Меню
00:00:00.000                             : en:Chapter 00
00:05:13.146                             : en:Chapter 01
00:07:44.881                             : en:Chapter 02
00:11:31.524                             : en:Chapter 03
00:15:09.783                             : en:Chapter 04
00:20:04.912                             : en:Chapter 05
00:22:32.809                             : en:Chapter 06
00:27:43.119                             : en:Chapter 07
00:31:57.832                             : en:Chapter 08
00:34:10.840                             : en:Chapter 09
00:37:53.228                             : en:Chapter 10
00:40:45.359                             : en:Chapter 11
00:45:49.329                             : en:Chapter 12
00:48:47.925                             : en:Chapter 13
00:50:23.061                             : en:Chapter 14
00:53:56.399                             : en:Chapter 15
00:56:32.222                             : en:Chapter 16
00:59:31.609                             : en:Chapter 17
01:01:29.185                             : en:Chapter 18
01:04:17.562                             : en:Chapter 19
01:06:01.457                             : en:Chapter 20
01:08:57.883                             : en:Chapter 21
01:11:13.519                             : en:Chapter 22
01:15:10.631                             : en:Chapter 23
01:17:06.037                             : en:Chapter 24
01:25:02.305                             : en:Chapter 25
01:27:09.349                             : en:Chapter 26
01:30:10.363                             : en:Chapter 27
01:32:43.724                             : en:Chapter 28
01:35:23.134                             : en:Chapter 29
01:37:46.860                             : en:Chapter 30
01:40:46.373                             : en:Chapter 31
01:43:46.220                             : en:Chapter 32
01:48:28.793                             : en:Chapter 33
01:52:08.096                             : en:Chapter 34
01:58:06.287                             : en:Chapter 35
Скриншоты:



Чужой / Alien (1979) BDRip
«В космосе твой крик никто не услышит...»
- Русское название: Чужой
Оригинальное название: Alien
Год выпуска: 1979
Производство: США, Великобритания
Жанр: Ужасы, Фантастика
Перевод: Дублированный
Субтитры: Вшитые отключаемые
Язык субтитров: Русский (Full, Forced, Commentary), Украинский, Английский-Дата мировой премьеры: 25 мая 1979
Дата выхода DVD релиза: 12 февраля 2009, «Двадцатый Век Фокс СНГ»
Дата выхода Blu-Ray релиза: 11 ноября 2010, «Двадцатый Век Фокс СНГ»-Режиссер: Ридли Скотт-Продюсер: Гордон Кэрролл, Дэвид Гайлер, Уолтер Хилл-Актеры: Сигурни Уивер, Том Скеррит, Иэн Холм, Джон Хёрт, Гарри Дин Стэнтон, Вероника Картрайт, Яфет Котто, Боладжи Бадеджо, Хелен Хортон, Эдди Пауэлл ...-Роли дублировали: Ольга Зубкова, Андрей Симанов, Олег Куценко, Денис Беспалый, Олег Форостенко ...-Описание фильма:
В далеком будущем возвращающийся на Землю грузовой космический корабль перехватывает исходящий с неизвестной планеты неопознанный сигнал. Экипаж принимает решение совершить посадку и разобраться, в чем дело. Оказавшись на планете, астронавты повсюду обнаруживают неопознанные предметы, по виду напоминающие гигантские коконы…-
Продолжительность: 01:56:37
Качество видео: BDRip 1080p
Видеокодек: MPEG-4 AVC/H.264
Битрейт видео: ~ 12,0 Мбит/сек
Размер кадра: 1920 x 816 (2.353) at 23.976 fps : 0.319 Bits/Pixel
Аудиокодек: DTS
Аудио #1: DTS 755 Кбит/сек (6ch), 48,0 КГц, 24 бит [Русский, дубляж]
Аудио #2: DTS 1510 Кбит/сек (6ch), 48,0 КГц, 24 бит [Английский]

MediaInfo:

Полное имя                               : E:\VIDEO\От Прометея к Чужому. Эволюция\Prometheus.to.Alien.The.Evolution.1979-2012.BDRip.1080p.NNM-CLUB\2.Alien.1979.BDRip.1080p.GIU.mkv
Формат                                   : Matroska
Версия формата                           : Version 2
Размер файла                             : 11,6 Гбайт
Продолжительность                        : 1 ч. 56 м.
Общий поток                              : 14,3 Мбит/сек
Дата кодирования                         : UTC 2012-10-27 14:43:12
Программа кодирования                    : mkvmerge v4.9.1 ('Ich will') built on Jul 11 2011 23:53:15
Библиотека кодирования                   : libebml v1.2.1 + libmatroska v1.1.1
Видео
Идентификатор                            : 1
Формат                                   : AVC
Формат/Информация                        : Advanced Video Codec
Профиль формата                          : [url=mailto:[email protected]][email protected][/url]
Параметр CABAC формата                   : Да
Параметр ReFrames формата                : 5 кадров
Идентификатор кодека                     : V_MPEG4/ISO/AVC
Битрейт                                  : 12,0 Мбит/сек
Ширина                                   : 1920 пикселей
Высота                                   : 816 пикселей
Соотношение сторон                       : 2,35:1
Режим частоты кадров                     : Переменный
Частота кадров в оригинале               : 23,976 кадра/сек
Цветовое пространство                    : YUV
Субдискретизация насыщенности            : 4:2:0
Битовая глубина                          : 8 бит
Тип развёртки                            : Прогрессивная
Бит/(Пиксели*Кадры)                      : 0.319
Заголовок                                : Alien.I.2007.BDRip.1080p.GIU
Библиотека кодирования                   : x264 core 116 r2074 2641b9e
Настройки программы                      : cabac=1 / ref=5 / deblock=1:-3:-3 / analyse=0x3:0x113 / me=umh / subme=11 / psy=1 / psy_rd=1.00:0.00 / mixed_ref=1 / me_range=32 / chroma_me=1 / trellis=2 / 8x8dct=1 / cqm=0 / deadzone=21,11 / fast_pskip=1 / chroma_qp_offset=-2 / threads=12 / sliced_threads=0 / nr=0 / decimate=1 / interlaced=0 / bluray_compat=0 / constrained_intra=0 / bframes=9 / b_pyramid=2 / b_adapt=2 / b_bias=0 / direct=3 / weightb=1 / open_gop=0 / weightp=2 / keyint=250 / keyint_min=10 / scenecut=40 / intra_refresh=0 / rc_lookahead=50 / rc=2pass / mbtree=1 / bitrate=12000 / ratetol=1.0 / qcomp=0.80 / qpmin=10 / qpmax=51 / qpstep=4 / cplxblur=20.0 / qblur=0.5 / ip_ratio=1.40 / aq=1:1.00
Язык                                     : English
Default                                  : Да
Forced                                   : Нет
Аудио #1
Идентификатор                            : 2
Формат                                   : DTS
Формат/Информация                        : Digital Theater Systems
Идентификатор кодека                     : A_DTS
Продолжительность                        : 1 ч. 56 м.
Вид битрейта                             : Постоянный
Битрейт                                  : 755 Кбит/сек
Каналы                                   : 6 каналов
Расположение каналов                     : Front: L C R, Side: L R, LFE
Частота                                  : 48,0 КГц
Битовая глубина                          : 24 бит
Метод сжатия                             : С потерями
Размер потока                            : 629 Мбайт (5%)
Заголовок                                : DTS.755.Kbps.Russian
Язык                                     : Russian
Default                                  : Да
Forced                                   : Нет
Аудио #2
Идентификатор                            : 3
Формат                                   : DTS
Формат/Информация                        : Digital Theater Systems
Идентификатор кодека                     : A_DTS
Продолжительность                        : 1 ч. 56 м.
Вид битрейта                             : Постоянный
Битрейт                                  : 1510 Кбит/сек
Каналы                                   : 6 каналов
Расположение каналов                     : Front: L C R, Side: L R, LFE
Частота                                  : 48,0 КГц
Битовая глубина                          : 24 бит
Метод сжатия                             : С потерями
Размер потока                            : 1,23 Гбайт (11%)
Заголовок                                : DTS.1510.Kbps.English
Язык                                     : English
Default                                  : Нет
Forced                                   : Нет
Текст #1
Идентификатор                            : 4
Формат                                   : UTF-8
Идентификатор кодека                     : S_TEXT/UTF8
Идентификатор кодека/Информация          : UTF-8 Plain Text
Заголовок                                : Russian (Full)
Язык                                     : Russian
Default                                  : Да
Forced                                   : Нет
Текст #2
Идентификатор                            : 5
Формат                                   : UTF-8
Идентификатор кодека                     : S_TEXT/UTF8
Идентификатор кодека/Информация          : UTF-8 Plain Text
Заголовок                                : Russian (Forced)
Язык                                     : Russian
Default                                  : Нет
Forced                                   : Нет
Текст #3
Идентификатор                            : 6
Формат                                   : UTF-8
Идентификатор кодека                     : S_TEXT/UTF8
Идентификатор кодека/Информация          : UTF-8 Plain Text
Заголовок                                : Russian (Commentary - Pидли Cкoтт)
Язык                                     : Russian
Default                                  : Нет
Forced                                   : Нет
Текст #4
Идентификатор                            : 7
Формат                                   : UTF-8
Идентификатор кодека                     : S_TEXT/UTF8
Идентификатор кодека/Информация          : UTF-8 Plain Text
Заголовок                                : Russian (Commentary - Cигуpни Уивep)
Язык                                     : Russian
Default                                  : Нет
Forced                                   : Нет
Текст #5
Идентификатор                            : 8
Формат                                   : UTF-8
Идентификатор кодека                     : S_TEXT/UTF8
Идентификатор кодека/Информация          : UTF-8 Plain Text
Заголовок                                : Ukrainian (Full)
Язык                                     : Ukrainian
Default                                  : Нет
Forced                                   : Нет
Текст #6
Идентификатор                            : 9
Формат                                   : UTF-8
Идентификатор кодека                     : S_TEXT/UTF8
Идентификатор кодека/Информация          : UTF-8 Plain Text
Заголовок                                : English (Full)
Язык                                     : English
Default                                  : Нет
Forced                                   : Нет
Меню
00:00:00.000                             : en:Chapter 00
00:02:01.121                             : en:Chapter 01
00:09:17.223                             : en:Chapter 02
00:12:47.141                             : en:Chapter 03
00:18:36.949                             : en:Chapter 04
00:21:53.687                             : en:Chapter 05
00:23:53.974                             : en:Chapter 06
00:26:50.608                             : en:Chapter 07
00:31:06.781                             : en:Chapter 08
00:34:47.502                             : en:Chapter 09
00:39:14.268                             : en:Chapter 10
00:42:06.899                             : en:Chapter 11
00:46:25.282                             : en:Chapter 12
00:50:55.468                             : en:Chapter 13
00:53:35.837                             : en:Chapter 14
00:58:26.127                             : en:Chapter 15
01:03:32.475                             : en:Chapter 16
01:08:07.499                             : en:Chapter 17
01:11:01.173                             : en:Chapter 18
01:14:09.611                             : en:Chapter 19
01:15:51.129                             : en:Chapter 20
01:18:37.212                             : en:Chapter 21
01:24:10.128                             : en:Chapter 22
01:28:24.006                             : en:Chapter 23
01:30:54.323                             : en:Chapter 24
01:32:53.484                             : en:Chapter 25
01:34:44.511                             : en:Chapter 26
01:36:28.615                             : en:Chapter 27
01:39:27.544                             : en:Chapter 28
01:44:15.957                             : en:Chapter 29
01:47:05.668                             : en:Chapter 30
01:53:53.075                             : en:Chapter 31
Скриншоты:



Чужие / Aliens (1986) BDRip
«В некоторых местах Вселенной вы не одиноки...»
- Русское название: Чужие
Оригинальное название: Aliens
Год выпуска: 1986
Производство: США, Великобритания
Жанр: Фантастика, Боевик, Триллер, Приключения
Перевод: Дублированный
Субтитры: Вшитые отключаемые
Язык субтитров: Русский (Full, Forced, Commentary), Украинский, Английский-Дата мировой премьеры: 18 июля 1986
Дата выхода DVD релиза: 12 февраля 2009, «Двадцатый Век Фокс СНГ»
Дата выхода Blu-Ray релиза: 4 октября 2012 «20th Century Fox»-Режиссер: Джеймс Кэмерон-Продюсер: Гэйл Энн Хёрд, Гордон Кэрролл, Дэвид Гайлер-Актеры: Сигурни Уивер, Майкл Бин, Кэрри Хенн, Пол Райзер, Лэнс Хенриксен, Билл Пэкстон, Дженетт Голдстин, Уильям Хоуп, Эл Мэтьюз, Марк Ролстон ...-Роли дублировали: Ольга Зубкова, Анастасия Гиренкова, Владимир Антоник, Илья Бледный, Татьяна Шитова ...-Описание фильма:
Чужой — совершенный организм. Идеальная машина для убийства, чье физическое превосходство сочетается с его феноменальной жаждой уничтожения. Офицер Элен Рипли и команда космического корабля Ностромо один раз уже встретилась с такой тварью. В живых осталась только Элен.
Капсула с Элен найдена спасателями после многих лет блуждания в космосе. Ей сообщают, что планета L.V. 426 колонизирована, и ей придется вернуться туда, где начался ее кошмар, ибо связь с колонистами прервалась. И вот в составе группы космического десанта Рипли отправляется на проклятую планету. Но теперь их там поджидает не один Чужой, а тысячи. Кто сможет выжить в этой войне: чудовища, способные только убивать, или люди, способные мыслить?-
Продолжительность: 02:34:26
Качество видео: BDRip 1080p
Видеокодек: MPEG-4 AVC/H.264
Битрейт видео: ~ 12,0 Мбит/сек
Размер кадра: 1920 x 1040 (1.846) at 23.976 fps : 0.251 Bits/Pixel
Аудиокодек: DTS
Аудио #1: DTS 755 Кбит/сек (6ch), 48,0 КГц, 24 бит [Русский, дубляж]
Аудио #2: DTS 1510 Кбит/сек (6ch), 48,0 КГц, 24 бит [Английский]

MediaInfo:

Полное имя                               : E:\VIDEO\От Прометея к Чужому. Эволюция\Prometheus.to.Alien.The.Evolution.1979-2012.BDRip.1080p.NNM-CLUB\3.Aliens.1986.BDRip.1080p.(Director's cut).GIU.mkv
Формат                                   : Matroska
Версия формата                           : Version 2
Размер файла                             : 15,4 Гбайт
Продолжительность                        : 2 ч. 34 м.
Общий поток                              : 14,3 Мбит/сек
Дата кодирования                         : UTC 2012-10-31 10:55:49
Программа кодирования                    : mkvmerge v4.9.1 ('Ich will') built on Jul 11 2011 23:53:15
Библиотека кодирования                   : libebml v1.2.1 + libmatroska v1.1.1
Видео
Идентификатор                            : 1
Формат                                   : AVC
Формат/Информация                        : Advanced Video Codec
Профиль формата                          : [url=mailto:[email protected]][email protected][/url]
Параметр CABAC формата                   : Да
Параметр ReFrames формата                : 4 кадра
Идентификатор кодека                     : V_MPEG4/ISO/AVC
Битрейт                                  : 12,0 Мбит/сек
Ширина                                   : 1920 пикселей
Высота                                   : 1040 пикселей
Соотношение сторон                       : 1,85:1
Режим частоты кадров                     : Переменный
Частота кадров в оригинале               : 23,976 кадра/сек
Цветовое пространство                    : YUV
Субдискретизация насыщенности            : 4:2:0
Битовая глубина                          : 8 бит
Тип развёртки                            : Прогрессивная
Бит/(Пиксели*Кадры)                      : 0.251
Заголовок                                : Aliens-2 (Director's cut)
Библиотека кодирования                   : x264 core 116 r2074 2641b9e
Настройки программы                      : cabac=1 / ref=4 / deblock=1:-3:-3 / analyse=0x3:0x113 / me=umh / subme=11 / psy=1 / psy_rd=1.00:0.00 / mixed_ref=1 / me_range=32 / chroma_me=1 / trellis=2 / 8x8dct=1 / cqm=0 / deadzone=21,11 / fast_pskip=1 / chroma_qp_offset=-2 / threads=12 / sliced_threads=0 / nr=0 / decimate=1 / interlaced=0 / bluray_compat=0 / constrained_intra=0 / bframes=10 / b_pyramid=2 / b_adapt=2 / b_bias=0 / direct=3 / weightb=1 / open_gop=0 / weightp=2 / keyint=250 / keyint_min=10 / scenecut=40 / intra_refresh=0 / rc_lookahead=50 / rc=2pass / mbtree=1 / bitrate=12000 / ratetol=1.0 / qcomp=0.80 / qpmin=10 / qpmax=51 / qpstep=4 / cplxblur=20.0 / qblur=0.5 / ip_ratio=1.40 / aq=1:1.00
Язык                                     : English
Default                                  : Да
Forced                                   : Нет
Аудио #1
Идентификатор                            : 2
Формат                                   : DTS
Формат/Информация                        : Digital Theater Systems
Идентификатор кодека                     : A_DTS
Продолжительность                        : 2 ч. 34 м.
Вид битрейта                             : Постоянный
Битрейт                                  : 755 Кбит/сек
Каналы                                   : 6 каналов
Расположение каналов                     : Front: L C R, Side: L R, LFE
Частота                                  : 48,0 КГц
Битовая глубина                          : 24 бит
Метод сжатия                             : С потерями
Размер потока                            : 834 Мбайт (5%)
Заголовок                                : DTS.755.Kbps.Russian
Язык                                     : Russian
Default                                  : Да
Forced                                   : Нет
Аудио #2
Идентификатор                            : 3
Формат                                   : DTS
Формат/Информация                        : Digital Theater Systems
Идентификатор кодека                     : A_DTS
Продолжительность                        : 2 ч. 34 м.
Вид битрейта                             : Постоянный
Битрейт                                  : 1510 Кбит/сек
Каналы                                   : 6 каналов
Расположение каналов                     : Front: L C R, Side: L R, LFE
Частота                                  : 48,0 КГц
Битовая глубина                          : 24 бит
Метод сжатия                             : С потерями
Размер потока                            : 1,63 Гбайт (11%)
Заголовок                                : DTS.1510.Kbps.English
Язык                                     : English
Default                                  : Нет
Forced                                   : Нет
Текст #1
Идентификатор                            : 4
Формат                                   : UTF-8
Идентификатор кодека                     : S_TEXT/UTF8
Идентификатор кодека/Информация          : UTF-8 Plain Text
Заголовок                                : Russian (Full)
Язык                                     : Russian
Default                                  : Да
Forced                                   : Нет
Текст #2
Идентификатор                            : 5
Формат                                   : UTF-8
Идентификатор кодека                     : S_TEXT/UTF8
Идентификатор кодека/Информация          : UTF-8 Plain Text
Заголовок                                : Russian (Forced)
Язык                                     : Russian
Default                                  : Нет
Forced                                   : Нет
Текст #3
Идентификатор                            : 6
Формат                                   : UTF-8
Идентификатор кодека                     : S_TEXT/UTF8
Идентификатор кодека/Информация          : UTF-8 Plain Text
Заголовок                                : Russian (Commentary)
Язык                                     : Russian
Default                                  : Нет
Forced                                   : Нет
Текст #4
Идентификатор                            : 7
Формат                                   : UTF-8
Идентификатор кодека                     : S_TEXT/UTF8
Идентификатор кодека/Информация          : UTF-8 Plain Text
Заголовок                                : Ukrainian (Full)
Язык                                     : Ukrainian
Default                                  : Нет
Forced                                   : Нет
Текст #5
Идентификатор                            : 8
Формат                                   : UTF-8
Идентификатор кодека                     : S_TEXT/UTF8
Идентификатор кодека/Информация          : UTF-8 Plain Text
Заголовок                                : English (Full)
Язык                                     : English
Default                                  : Нет
Forced                                   : Нет
Меню
00:00:00.000                             : en:Chapter 00
00:02:06.751                             : en:Chapter 01
00:05:15.732                             : en:Chapter 02
00:08:34.347                             : en:Chapter 03
00:10:52.109                             : en:Chapter 04
00:15:13.621                             : en:Chapter 05
00:17:25.002                             : en:Chapter 06
00:20:54.127                             : en:Chapter 07
00:25:02.500                             : en:Chapter 08
00:25:57.472                             : en:Chapter 09
00:30:03.718                             : en:Chapter 10
00:32:53.888                             : en:Chapter 11
00:35:56.862                             : en:Chapter 12
00:38:03.531                             : en:Chapter 13
00:45:40.070                             : en:Chapter 14
00:52:28.520                             : en:Chapter 15
00:54:48.076                             : en:Chapter 16
00:56:09.115                             : en:Chapter 17
01:00:11.107                             : en:Chapter 18
01:04:47.508                             : en:Chapter 19
01:10:10.998                             : en:Chapter 20
01:12:51.992                             : en:Chapter 21
01:16:22.869                             : en:Chapter 22
01:21:22.252                             : en:Chapter 23
01:23:17.200                             : en:Chapter 24
01:26:21.134                             : en:Chapter 25
01:31:22.059                             : en:Chapter 26
01:34:37.421                             : en:Chapter 27
01:37:25.255                             : en:Chapter 28
01:38:40.706                             : en:Chapter 29
01:41:23.243                             : en:Chapter 30
01:45:03.463                             : en:Chapter 31
01:47:15.553                             : en:Chapter 32
01:51:41.402                             : en:Chapter 33
01:52:58.604                             : en:Chapter 34
02:02:10.364                             : en:Chapter 35
02:05:54.046                             : en:Chapter 36
02:07:41.987                             : en:Chapter 37
02:13:15.528                             : en:Chapter 38
02:17:29.616                             : en:Chapter 39
02:22:24.702                             : en:Chapter 40
02:23:16.712                             : en:Chapter 41
02:30:16.006                             : en:Chapter 42
02:31:36.462                             : en:Chapter 43
Скриншоты:



Чужой 3 / Alien? (1992) BDRip
«Снова началось...»
- Русское название: Чужой 3
Оригинальное название: Alien?
Год выпуска: 1992
Производство: США
Жанр: Фантастика, Боевик, Триллер, Приключения
Перевод: Дублированный
Субтитры: Вшитые отключаемые
Язык субтитров: Русский (Full, Forced, Commentary), Украинский, Английский-Дата мировой премьеры: 22 мая 1992
Дата выхода DVD релиза: 8 июля 2010, «Двадцатый Век Фокс СНГ»
Дата выхода Blu-Ray релиза: 4 октября 2012 «20th Century Fox»-Режиссер: Дэвид Финчер-Продюсер: Гордон Кэрролл, Дэвид Гайлер, Уолтер Хилл-Актеры: Сигурни Уивер, Чарльз С. Даттон, Чарльз Дэнс, Пол МакГэнн, Брайан Гловер, Ральф Браун, Дэниэл Уэбб, Кристофер Джон Филдс, Холт МакКэллани, Лэнс Хенриксен ...-Роли дублировали: Ольга Зубкова, Денис Беспалый, Валерий Сторожик, Андрей Градов, Олег Куценко ...-Описание фильма:
После бегства с планеты «Чужих» космический корабль Рипли терпит катастрофу вблизи так называемой планеты — тюрьмы, места, где отсиживают свой срок убийцы, насильники и прочие отбросы общества. Вместе с Рипли на эту планету попадает зародыш чужого, который и был причиной гибели корабля. Довольно быстро он превращается в гигантскую, зубастую тварь и начинает свое темное дело.
Его жертвами становятся десятки безоружных заключенных. Кровь брызжет фонтаном, куски человеческого мяса разлетаются во все стороны. И кажется, что остановить эту машину смерти не сможет никто, никто кроме отважной, но увы не бессмертной девушки по имени Рипли.-
Продолжительность: 02:24:52
Качество видео: BDRip 1080p
Видеокодек: MPEG-4 AVC/H.264
Битрейт видео: ~ 12,0 Мбит/сек
Размер кадра: 1920 x 816 (2.353) at 23.976 fps : 0.319 Bits/Pixel
Аудиокодек: DTS
Аудио #1: DTS 755 Кбит/сек (6ch), 48,0 КГц, 24 бит [Русский, дубляж]
Аудио #2: DTS 1510 Кбит/сек (6ch), 48,0 КГц, 24 бит [Английский]

[Цитировать]



Показать сообщения:    

Текущее время: 04-Дек 02:56

Часовой пояс: UTC + 3


Вы не можете начинать темы
Вы не можете отвечать на сообщения
Вы не можете редактировать свои сообщения
Вы не можете удалять свои сообщения
Вы не можете голосовать в опросах
Вы не можете прикреплять файлы к сообщениям
Вы не можете скачивать файлы

!ВНИМАНИЕ!
Сайт не предоставляет электронные версии произведений, а занимается лишь коллекционированием и каталогизацией ссылок, присылаемых и публикуемых на форуме нашими читателями. Если вы являетесь правообладателем какого-либо представленного материала и не желаете, чтобы ссылка на него находилась в нашем каталоге, свяжитесь с нами, и мы незамедлительно удалим ее. Файлы для обмена на трекере предоставлены пользователями сайта, и администрация не несет ответственности за их содержание. Просьба не заливать файлы, защищенные авторскими правами, а также файлы нелегального содержания!