[ Сегодня идет свободное скачивание без начисления Download ]


Статистика раздачи
Нет
 
   
 
 
 
-Королева Проклятых / Queen of the Damned (2002) [1080p] BDRip- Русское название: Королева Проклятых
Оригинальное название: Queen of the Damned
Год выпуска: 2002
Жанр: Ужасы,Мистика
Страна: США, Австралия
Студия: Warner Bros. Pictures
Описание фильма:
Легендарный вампир Лестат пробудился после долгих лет сна и решил выйти в свет. Теперь он имеет возможность перемещаться среди смертных в образе некой рок-звезды. Его опьяняющая музыка — приманка популярна во всем мире, и в конечном счете, доходит до ушей дремлющей Королевы Акаши в ее склепе во льдах Арктики.
Мать всех вампиров, Акаша отдыхала несколько столетий, ожидая подходящее время для того, чтобы подняться и вновь захватить власть по всему миру. Музыка Лестата — открытие, которого она ожидала…
Режиссер: Майкл Раймер
Актеры: Стюарт Таунсенд, Элайя, Маргерит Моро, Пол МакГэнн, Венсен Перес, Лина Улин
Продолжительность: 01:41:29
Перевод:
1) Профессиональный (дублированный)
2) Авторский (одноголосый закадровый) Леонид Векшин
Язык субтитров: русские, английские SDH
Вид субтитров: Вшитые(отключаемые)

Дата мировой премьеры: 10 января 2002
Дата российской премьеры: 17 октября 2002
Дата выхода DVD релиза: 5 июля 2012, «CP Дистрибуция»
Видеокодек: MPEG-4 AVC/H.264
Битрейт видео: ~10000 Кбит/сек
Размер кадра: 1920x1080p
Качество видео: BDRip
Аудио:
1) AC3 / 2.0 / 48 kHz / 224 kbps / 16 bits |Dub|
2) AC3 / 2.0 / 44,1 kHz / 192 kbps / 16 bits |AVO|
3) ACC / 2.0 / 48 kHz / 192 kbps / 16 bits |Original|
Скриншоты:

Рецензия, отзыв о фильме

Лучше умереть, чем провести вечность в одиночестве…
Я не поклонница вампиров, да и вообще раньше их недолюбливала. Посмотрев «Королеву проклятых» мое мнение о них координально изменилось. Загадочный, дерзкий, самовлюбленный-идеальная характеристика вампира. Стюарт Таунсенд замечательно передал все эти качества на экран.
Образ королевы, которую играла Алия, навсегда отпечатался в моей памяти. Сколько власти, беспощадности, но в то же время, какая грация, страсть. Такая и должна быть настоящая Королева Проклятых.
Музыку особенно хочется отметить, сразу заворожила, дает огромный плюс фильму. Советую посмотреть любителям мистики, всего загадочного и темного.

MediaInfo

Общее
Уникальный идентификатор : 225700842734878753613690055240159471859 (0xA9CC66B1BE6392CC94B5F7473E2E28F3)
Полное имя : D:\svo\Queen of the Damned .mkv
Формат : Matroska
Версия формата : Version 2
Размер файла : 7,39 Гбайт
Продолжительность : 1 ч. 42 м.
Общий поток : 10,3 Мбит/сек
Название фильма : Queen of the Damned (by Grobov)
Дата кодирования : UTC 2012-12-01 12:55:20
Программа кодирования : mkvmerge v5.6.0 ('Kenya Kane') built on Jun 29 2012 15:01:44
Библиотека кодирования : libebml v1.2.3 + libmatroska v1.3.0
Видео
Идентификатор : 1
Формат : AVC
Формат/Информация : Advanced Video Codec
Профиль формата : Main@L4.0
Параметр CABAC формата : Нет
Параметр ReFrames формата : 2 кадра
Параметр GOP формата : M=3, N=12
Идентификатор кодека : V_MPEG4/ISO/AVC
Продолжительность : 1 ч. 42 м.
Номинальный битрейт : 10000 Кбит/сек
Ширина : 1920 пикселей
Высота : 1080 пикселей
Соотношение сторон : 16:9
Частота кадров : 24,000 кадра/сек
Цветовое пространство : YUV
Субдискретизация насыщенности : 4:2:0
Битовая глубина : 8 бит
Тип развёртки : Прогрессивная
Бит/(Пиксели*Кадры) : 0.201
Заголовок : Queen of the Damned (by Grobov)
Библиотека кодирования : x264 core 77
Настройки программы : cabac=0 / ref=1 / deblock=1:0:0 / analyse=0x1:0x11 / me=hex / subme=5 / psy=1 / psy_rd=0.0:0.0 / mixed_ref=0 / me_range=16 / chroma_me=1 / trellis=0 / 8x8dct=0 / cqm=0 / deadzone=21,11 / chroma_qp_offset=0 / threads=8 / nr=0 / decimate=1 / mbaff=0 / constrained_intra=0 / bframes=2 / b_pyramid=0 / b_adapt=1 / b_bias=0 / direct=1 / wpredb=0 / keyint=12 / keyint_min=7 / scenecut=40 / rc_lookahead=12 / rc=abr / mbtree=1 / bitrate=10000 / ratetol=1.0 / qcomp=0.60 / qpmin=10 / qpmax=51 / qpstep=4 / ip_ratio=1.41 / aq=1:1.00
Default : Да
Forced : Нет
Аудио #1
Идентификатор : 2
Формат : AC-3
Формат/Информация : Audio Coding 3
Расширение режима : CM (complete main)
Параметр Endianness формата : Big
Идентификатор кодека : A_AC3
Продолжительность : 1 ч. 42 м.
Вид битрейта : Постоянный
Битрейт : 224 Кбит/сек
Каналы : 2 канала
Расположение каналов : Front: L R
Частота : 48,0 КГц
Битовая глубина : 16 бит
Метод сжатия : С потерями
Задержка видео : -42 мс.
Размер потока : 164 Мбайт (2%)
Заголовок : полное дублирование
Язык : Russian
Default : Да
Forced : Нет
Аудио #2
Идентификатор : 3
Формат : AC-3
Формат/Информация : Audio Coding 3
Расширение режима : CM (complete main)
Параметр Endianness формата : Big
Идентификатор кодека : A_AC3
Продолжительность : 1 ч. 42 м.
Вид битрейта : Постоянный
Битрейт : 192 Кбит/сек
Каналы : 2 канала
Расположение каналов : Front: L R
Частота : 44,1 КГц
Битовая глубина : 16 бит
Метод сжатия : С потерями
Задержка видео : -42 мс.
Размер потока : 141 Мбайт (2%)
Заголовок : Леонид Векшин
Язык : Russian
Default : Нет
Forced : Нет
Аудио #3
Идентификатор : 4
Формат : AAC
Формат/Информация : Advanced Audio Codec
Профиль формата : LC
Идентификатор кодека : A_AAC
Продолжительность : 1 ч. 42 м.
Каналы : 2 канала
Расположение каналов : Front: L R
Частота : 48,0 КГц
Метод сжатия : С потерями
Задержка видео : -42 мс.
Заголовок : Original
Default : Нет
Forced : Нет
Текст #1
Идентификатор : 5
Формат : UTF-8
Идентификатор кодека : S_TEXT/UTF8
Идентификатор кодека/Информация : UTF-8 Plain Text
Заголовок : сабы рус
Язык : Russian
Default : Нет
Forced : Нет
Текст #2
Идентификатор : 6
Формат : UTF-8
Идентификатор кодека : S_TEXT/UTF8
Идентификатор кодека/Информация : UTF-8 Plain Text
Заголовок : сабы(english)
Язык : English
Default : Нет
Forced : Нет
Меню
00:00:00.000 : :Chapter 01
00:03:44.599 : :Chapter 02
00:06:48.157 : :Chapter 03
00:09:28.276 : :Chapter 04
00:12:29.165 : :Chapter 05
00:16:36.286 : :Chapter 06
00:20:09.583 : :Chapter 07
00:24:34.055 : :Chapter 08
00:29:09.038 : :Chapter 09
00:34:09.088 : :Chapter 10
00:37:30.164 : :Chapter 11
00:40:49.196 : :Chapter 12
00:45:11.792 : :Chapter 13
00:51:03.268 : :Chapter 14
00:55:10.473 : :Chapter 15
00:59:45.290 : :Chapter 16
01:04:18.646 : :Chapter 17
01:06:34.115 : :Chapter 18
01:09:09.311 : :Chapter 19
01:12:02.026 : :Chapter 20
01:16:46.226 : :Chapter 21
01:19:18.003 : :Chapter 22
01:21:48.278 : :Chapter 23
01:26:18.756 : :Chapter 24
01:30:07.068 : :Chapter 25
01:32:45.142 : :Chapter 26
01:37:04.485 : :Chapter 27
Время раздачи: По мере возможности

[Цитировать]



Показать сообщения:    

Текущее время: 08-Дек 01:22

Часовой пояс: UTC + 3


Вы не можете начинать темы
Вы не можете отвечать на сообщения
Вы не можете редактировать свои сообщения
Вы не можете удалять свои сообщения
Вы не можете голосовать в опросах
Вы не можете прикреплять файлы к сообщениям
Вы не можете скачивать файлы

!ВНИМАНИЕ!
Сайт не предоставляет электронные версии произведений, а занимается лишь коллекционированием и каталогизацией ссылок, присылаемых и публикуемых на форуме нашими читателями. Если вы являетесь правообладателем какого-либо представленного материала и не желаете, чтобы ссылка на него находилась в нашем каталоге, свяжитесь с нами, и мы незамедлительно удалим ее. Файлы для обмена на трекере предоставлены пользователями сайта, и администрация не несет ответственности за их содержание. Просьба не заливать файлы, защищенные авторскими правами, а также файлы нелегального содержания!