[ Сегодня идет свободное скачивание без начисления Download ]


Статистика раздачи
Нет
 
   
 
Top  
 
 
-Крутые времена / Тяжелые времена / Harsh Times (2005) BDRip- Русское название: Крутые времена / Тяжелые времена
Оригинальное название: Harsh Times
Год выпуска: 2005
Страна: США
Жанр: Триллер, Драма, Криминал
Описание фильма:
Фильм рассказывает историю Майка Альвареза, безработного в поисках работы, и вернувшегося с войны в Афганистане Джима Девида, которого совсем недавно взял к себе в стукачи отдел по борьбе с наркотиками, чтобы выполнить кое-какую грязную работенку в Колумбии. Парочка бездельников только и делает, что пьет целыми днями и вляпывается в неприятности. Всего несколько дней в Лос-Анджелесе - и жизнь меняется настолько, что назад дороги нет.
Режиссер: Дэвид Эйер / David Ayer
Актеры: Кристиан Бэйл, Армандо Кантина, Фрэдди Родригес, Ева Лонгория, Кеннет Чой, Тэмми Трулл, Терри Крюз, Роберт Дэхи, Саманта Эстебан, Чака Форман, Сезар Гарсиа Гомес, Ноэль Гульеми, Эмилио Ривера, Дж.К. Симмонс
Продолжительность: 01:56:14
Перевод: Профессиональный (многоголосый, закадровый)
Язык субтитров: Русский
Вид субтитров: Вшитые отключаемые- -Дата мировой премьеры: 11 сентября 2005
Дата выхода DVD релиза: 19 марта 2007, «West Video»
Видеокодек: MPEG-4 AVC/H.264
Битрейт видео: ~7100 кбит/сек
Размер кадра: 1280x692
Качество видео: BDRip 720p
Формат: MKV
Аудиокодек: DTS , АС3
Аудио #1: Русский ( AC3 / 5.1 / 48 kHz / 640 kbps ) - многоголосый закадровый
Аудио #2: Английский ( DTS / 5.1 / 48 kHz / 1510 kbps )-

MediaInfo

Общее
Уникальный идентификатор : 223949475747014186839103467853555529665 (0xA87B19A295C09C2FBABF8362CFD577C1)
Полное имя : E:\Интернет-загрузки\Готовые торренты\Harsh Times (2005) 720p BDRip.mkv
Формат : Matroska
Версия формата : Version 2
Размер файла : 7,51 Гбайт
Продолжительность : 1 ч. 56 м.
Общий поток : 9245 Кбит/сек
Название фильма : Harsh Times (2005) 720 BDRip
Дата кодирования : UTC 2010-12-23 23:13:56
Программа кодирования : mkvmerge v4.4.0 ('Die Wiederkehr') сборка от Oct 31 2010 21:52:48
Библиотека кодирования : libebml v1.0.0 + libmatroska v1.0.0
Видео
Идентификатор : 1
Формат : AVC
Формат/Информация : Advanced Video Codec
Профиль формата : High@L4.1
Параметр CABAC формата : Да
Параметр ReFrames формата : 8 кадров
Идентификатор кодека : V_MPEG4/ISO/AVC
Продолжительность : 1 ч. 56 м.
Битрейт : 7100 Кбит/сек
Ширина : 1280 пикселей
Высота : 692 пикселя
Соотношение сторон : 1,85:1
Режим частоты кадров : Постоянный
Частота кадров : 23,976 кадра/сек
Цветовое пространство : YUV
Субдискретизация насыщенности : 4:2:0
Битовая глубина : 8 бит
Тип развёртки : Прогрессивная
Бит/(Пиксели*Кадры) : 0.334
Размер потока : 5,61 Гбайт (75%)
Заголовок : H264 [1280x692, 7100kbps, 23,976p]
Библиотека кодирования : x264 core 98 r1649 20cbe10
Настройки программы : cabac=1 / ref=8 / deblock=1:-3:-3 / analyse=0x3:0x113 / me=umh / subme=10 / psy=1 / psy_rd=0.80:0.10 / mixed_ref=1 / me_range=32 / chroma_me=1 / trellis=2 / 8x8dct=1 / cqm=0 / deadzone=21,11 / fast_pskip=0 / chroma_qp_offset=-3 / threads=8 / sliced_threads=0 / nr=0 / decimate=0 / interlaced=0 / constrained_intra=0 / bframes=8 / b_pyramid=2 / b_adapt=2 / b_bias=0 / direct=3 / weightb=1 / weightp=2 / keyint=250 / keyint_min=23 / scenecut=40 / intra_refresh=0 / rc_lookahead=40 / rc=2pass / mbtree=0 / bitrate=7100 / ratetol=1.0 / qcomp=0.60 / qpmin=10 / qpmax=51 / qpstep=4 / cplxblur=20.0 / qblur=0.5 / vbv_maxrate=40000 / vbv_bufsize=30000 / ip_ratio=1.40 / pb_ratio=1.30 / aq=1:0.80 / nal_hrd=none
Default : Да
Forced : Нет
Коэффициенты матрицы : BT.709
Аудио #1
Идентификатор : 2
Формат : AC-3
Формат/Информация : Audio Coding 3
Расширение режима : CM (complete main)
Параметр Endianness формата : Big
Идентификатор кодека : A_AC3
Продолжительность : 1 ч. 56 м.
Вид битрейта : Постоянный
Битрейт : 640 Кбит/сек
Каналы : 6 каналов
Расположение каналов : Front: L C R, Side: L R, LFE
Частота : 48,0 КГц
Битовая глубина : 16 бит
Метод сжатия : С потерями
Размер потока : 532 Мбайт (7%)
Заголовок : MVO [AC3, 5.1, 640kbps, 48kHz]
Язык : Russian
Default : Да
Forced : Нет
Аудио #2
Идентификатор : 3
Формат : DTS
Формат/Информация : Digital Theater Systems
Идентификатор кодека : A_DTS
Продолжительность : 1 ч. 56 м.
Вид битрейта : Постоянный
Битрейт : 1510 Кбит/сек
Каналы : 6 каналов
Расположение каналов : Front: L C R, Side: L R, LFE
Частота : 48,0 КГц
Битовая глубина : 24 бит
Метод сжатия : С потерями
Размер потока : 1,23 Гбайт (16%)
Заголовок : Original [DTS, 5.1, 1510kbps, 48kHz]
Язык : English
Default : Нет
Forced : Нет
Текст
Идентификатор : 4
Формат : UTF-8
Идентификатор кодека : S_TEXT/UTF8
Идентификатор кодека/Информация : UTF-8 Plain Text
Заголовок : FULL
Язык : Russian
Default : Нет
Forced : Нет
Меню
00:00:00.000 : en:Chapter 1
00:06:20.129 : en:Chapter 2
00:13:53.666 : en:Chapter 3
00:22:24.468 : en:Chapter 4
00:31:18.585 : en:Chapter 5
00:38:37.189 : en:Chapter 6
00:49:44.314 : en:Chapter 7
00:54:50.453 : en:Chapter 8
01:04:54.348 : en:Chapter 9
01:11:08.097 : en:Chapter 10
01:17:12.127 : en:Chapter 11
01:26:11.416 : en:Chapter 12
01:33:53.377 : en:Chapter 13
01:41:00.929 : en:Chapter 14
01:45:02.587 : en:Chapter 15
01:50:13.273 : en:Chapter 16
-Скриншоты:




Время раздачи: с 10:00 до 24:00 ежедневно

[Цитировать]



Показать сообщения:    

Текущее время: 02-Дек 21:07

Часовой пояс: UTC + 3


Вы не можете начинать темы
Вы не можете отвечать на сообщения
Вы не можете редактировать свои сообщения
Вы не можете удалять свои сообщения
Вы не можете голосовать в опросах
Вы не можете прикреплять файлы к сообщениям
Вы не можете скачивать файлы

!ВНИМАНИЕ!
Сайт не предоставляет электронные версии произведений, а занимается лишь коллекционированием и каталогизацией ссылок, присылаемых и публикуемых на форуме нашими читателями. Если вы являетесь правообладателем какого-либо представленного материала и не желаете, чтобы ссылка на него находилась в нашем каталоге, свяжитесь с нами, и мы незамедлительно удалим ее. Файлы для обмена на трекере предоставлены пользователями сайта, и администрация не несет ответственности за их содержание. Просьба не заливать файлы, защищенные авторскими правами, а также файлы нелегального содержания!