[ Сегодня идет свободное скачивание без начисления Download ]


Статистика раздачи
Нет
 
   
 
Top  
 
 
-Amy Winehouse - When Amy Came to Dingle (Other Voices Special) (2011) HDTVRip- Язык: Английский
Название: Amy Winehouse - When Amy Came to Dingle (Other Voices Special)
Год выпуска: 2011
Жанр: Vocal Jazz, Soul
Описание:
Выступление и интервью Amy Winehouse в церкви St. James, Dingle, графства Kerry в Ирландии 03 Декабря 2006г. для передачи Other Voices.
1. Tears Dry On Their Own
Interview # 1
2. I'm No Good
Interview # 2
Interview # 3

3. Love Is A Loosing Game
Interview # 4
4. Back To Black
Interview # 5
5. Me & Mr Jones
6. Rehab

Описание (англ.):

In December 2006 a 22 year old Amy Winehouse traveled to Dingle to record a performance and interview for seminal Irish music TV series Other Voices. This is the story of that day.
Presented by Other Voices presenter and BBC DJ Annie Mac, the programe will feature an extended interview with Amy and an intimate six-song performance at the beautiful 200 year old St. James’ Church in the heart of Dingle, the home of the Other Voices series since it began nine years ago. This unique film will also feature an in-depth interview with Amy, where she speaks openly about her music, her influences, her life and her future. Much of the compelling material captured here has never been seen before.
‘When Amy Came to Dingle’ is a gentle and fascinating portrait of one of music’s most extraordinary talents, who passed away in July of this year. The programe steps back to a time and a place when vitality, promise and potential were Amy’s calling cards, before her personal troubles overtook her enormous musical achievements and tabloid headlines defined her life. Just before 9pm on December 3rd, 2006, Amy Winehouse took to the stage at St. James’ Church and in an emotional and personal performance she claimed the hearts of the tiny audience that packed the church to its rafters.
Immediately after her performance she left the stage a relaxed and happy Amy Winehouse, crossed the road to Benner’s Hotel where she spoke with the show’s host, John Kelly, about her music, her influences and her plans for the immediate future. She devoured a plate of oysters from Lord Bakers next door and visited one of Dingle’s famous hostelries, Foxy Johns, before climbing into a taxi and driving off into the night – a four hour visit that left an indelible impression on those who were lucky enough to see her perform.

MediaInfo

Общее
Полное имя : G:\РАЗДАЧИ\Amy Winehouse - Other Voices Special HDTVRip720p.mp4
Формат : MPEG-4
Профиль формата : Base Media
Идентификатор кодека : isom
Размер файла : 1,84 Гбайт
Продолжительность : 45 м.
Общий поток : 5754 Кбит/сек
Трек/Положение : 1
Дата записи : 2012
Программа кодирования : Lavf53.19.0
Обложка : Yes
Примечание : www.dvdvideosoft.com
Видео
Идентификатор : 1
Формат : MPEG-4 Visual
Профиль формата : Simple@L1
Параметр BVOP формата : Нет
Параметр QPel формата : Нет
Параметр GMC формата : Без точки перехода
Параметр матрицы формата : Default (H.263)
Идентификатор кодека : 20
Продолжительность : 45 м.
Вид битрейта : Переменный
Битрейт : 5493 Кбит/сек
Максимальный битрейт : 8000 Кбит/сек
Ширина : 1280 пикселей
Высота : 720 пикселей
Соотношение сторон : 16:9
Режим частоты кадров : Постоянный
Частота кадров : 25,000 кадров/сек
Цветовое пространство : YUV
Субдискретизация насыщенности : 4:2:0
Битовая глубина : 8 бит
Тип развёртки : Прогрессивная
Метод сжатия : С потерями
Бит/(Пиксели*Кадры) : 0.238
Размер потока : 1,76 Гбайт (95%)
Библиотека кодирования : Lavc53.28.0
Аудио
Идентификатор : 2
Формат : AAC
Формат/Информация : Advanced Audio Codec
Профиль формата : LC
Идентификатор кодека : 40
Продолжительность : 45 м.
Вид битрейта : Постоянный
Битрейт : 256 Кбит/сек
Каналы : 2 канала
Расположение каналов : Front: L R
Частота : 48,0 КГц
Метод сжатия : С потерями
Размер потока : 84,0 Мбайт (4%)
Продолжительность: 00:45:52
Перевод: Отсутствует
Видеокодек: MPEG-4 AVC/H.264
Битрейт видео: ~5493 Kbps
Размер кадра: 1280x720
Качество видео: HDTVRip
Аудиокодек: AAC
Битрейт аудио: 256 Kbps
Скриншоты:

Время раздачи: круглосуточно

[Цитировать]



Показать сообщения:    

Текущее время: 10-Дек 19:38

Часовой пояс: UTC + 3


Вы не можете начинать темы
Вы не можете отвечать на сообщения
Вы не можете редактировать свои сообщения
Вы не можете удалять свои сообщения
Вы не можете голосовать в опросах
Вы не можете прикреплять файлы к сообщениям
Вы не можете скачивать файлы

!ВНИМАНИЕ!
Сайт не предоставляет электронные версии произведений, а занимается лишь коллекционированием и каталогизацией ссылок, присылаемых и публикуемых на форуме нашими читателями. Если вы являетесь правообладателем какого-либо представленного материала и не желаете, чтобы ссылка на него находилась в нашем каталоге, свяжитесь с нами, и мы незамедлительно удалим ее. Файлы для обмена на трекере предоставлены пользователями сайта, и администрация не несет ответственности за их содержание. Просьба не заливать файлы, защищенные авторскими правами, а также файлы нелегального содержания!