[ Сегодня идет свободное скачивание без начисления Download ]


Статистика раздачи
Нет
 
   
 
Top  
 
 
Она / Elle Информация о фильме
Название: Она
Оригинальное название: Elle
Год выхода: 2016
Жанр: Триллер, драма
Режиссер: Пол Верховен
В ролях: Изабель Юппер, Лоран Лафитт, Анн Консиньи, Шарль Берлинг, Виржини Эфира, Жюдит Магр, Кристиан Беркель, Йонас Блоке, Алис Исааз, Вимала Понс
О фильме: Мишель, состоятельная парижанка, владелица крупной компании по разработке видеоигр, с мужем в разводе, у сына своя, взрослая, жизнь. А у Мишель необременительный роман с мужем подруги. Однажды в ее дом врывается мужчина в черном, жестоко избивает ее и насилует. Когда он исчезает, Мишель не заявляет в полицию. Страшная история пробуждает в ней детские психологические травмы и скрытые инстинкты, связанные с ее отцом, серийным убийцей. С этого момента она в каждом мужчине из своего окружения начинает видеть насильника. Она хочет найти его, но вовсе не для того, чтобы сдать полиции...

Страна: Франция, Германия, Бельгия
Студия: Canal+ [fr], Casa Kafka Pictures)
Продолжительность: 02:10:37
Перевод: Дублированный [Line]
Субтитры: Нет
Семпл
Файл
Кодек: XviD
Качество: HDRip
Видео: 688x288 (2.39:1), 24 fps, XviD build 73 ~654 kbps avg, 0.14 bit/pixel
Звук: 48 kHz, MPEG Layer 3, 2 ch, ~128.00 kbps avg
ПРИСУТСТВУЕТ РЕКЛАМА!

MediaInfo

General
Complete name : Elle.2016.HDRip.ot.Portablius.avi
Format : AVI
Format/Info : Audio Video Interleave
File size : 741 MiB
Duration : 2 h 10 min
Overall bit rate : 792 kb/s
Writing application : VirtualDubMod 1.5.10.3 | www.virtualdub-fr.org || (build 2550/release)
Writing library : VirtualDubMod build 2550/release
Video
ID : 0
Format : MPEG-4 Visual
Format profile : Advanced Simple@L5
Format settings, BVOP : 1
Format settings, QPel : No
Format settings, GMC : No warppoints
Format settings, Matrix : Custom
Codec ID : XVID
Codec ID/Hint : XviD
Duration : 2 h 10 min
Bit rate : 655 kb/s
Width : 688 pixels
Height : 288 pixels
Display aspect ratio : 2.40:1
Frame rate : 24.000 FPS
Color space : YUV
Chroma subsampling : 4:2:0
Bit depth : 8 bits
Scan type : Progressive
Compression mode : Lossy
Bits/(Pixel*Frame) : 0.138
Stream size : 612 MiB (83%)
Writing library : XviD 73
Audio
ID : 1
Format : MPEG Audio
Format version : Version 1
Format profile : Layer 3
Codec ID : 55
Codec ID/Hint : MP3
Duration : 2 h 10 min
Bit rate mode : Constant
Bit rate : 128 kb/s
Channel(s) : 2 channels
Sampling rate : 48.0 kHz
Compression mode : Lossy
Stream size : 120 MiB (16%)
Alignment : Aligned on interleaves
Interleave, duration : 42 ms (1.00 video frame)
Interleave, preload duratio : 504 ms
Writing library : LAME3.99r
Encoding settings : -m s -V 4 -q 2 -lowpass 17 -b 128

Скриншоты

[Цитировать]



Показать сообщения:    

Текущее время: 09-Дек 16:38

Часовой пояс: UTC + 3


Вы не можете начинать темы
Вы не можете отвечать на сообщения
Вы не можете редактировать свои сообщения
Вы не можете удалять свои сообщения
Вы не можете голосовать в опросах
Вы не можете прикреплять файлы к сообщениям
Вы не можете скачивать файлы

!ВНИМАНИЕ!
Сайт не предоставляет электронные версии произведений, а занимается лишь коллекционированием и каталогизацией ссылок, присылаемых и публикуемых на форуме нашими читателями. Если вы являетесь правообладателем какого-либо представленного материала и не желаете, чтобы ссылка на него находилась в нашем каталоге, свяжитесь с нами, и мы незамедлительно удалим ее. Файлы для обмена на трекере предоставлены пользователями сайта, и администрация не несет ответственности за их содержание. Просьба не заливать файлы, защищенные авторскими правами, а также файлы нелегального содержания!