[ Сегодня идет свободное скачивание без начисления Download ]


Статистика раздачи
Нет
 
   
 
Top  
 
 
-Linkin Park - Rock in Rio (2012) HDTVRip 720p - Оригинальное название: Linkin Park - Rock in Rio
Год выпуска: 2012
Жанр: Alternative - Rock
Описание фильма:
Tracklist:
01.A Place For My Head (Long Intro; Ext. Outro)
02.Given Up (Ext. Outro w/ Extra Note)
03.Faint (Ext. Outro)
04.With You (2012 Ext. Intro; Ext. Scratch Outro)
05.Runaway
06.From The Inside (Ext. Intro)
07.Somewhere I Belong (2012 Ext. Intro)
08.Numb
09.Lies Greed Misery (Live Debut)
10.Points Of Authority
11.Waiting For The End Apaches (Intro w/ 'Until It Breaks' rap; Ext. Outro)
12.Breaking The Habit
13.LOATR/SOTD/Iridescent (Ballad Medley)
14.The Catalyst
15.Burn It Down
16.What I've Done
17.Crawling
18.New Divide
19.In The End
20.Bleed It Out (Ext. Intro; Ext. Bridge w/ Beastie Boys 'Sabotage'; Ext. Outro)
21.Papercut (False Start)
22.One Step Closer (Ext. Outro)
Доп. информация: Великолепное выступление Linkin Park на фестивале Rock in Rio 26 мая 2012 года.

MediaInfo

Общее
Уникальный идентификатор : 214219204450994098987822775254212330701 (0xA1291E389F7B92449D468F758F1AC4CD)
Полное имя : G:\РАЗДАЧИ\Linkin Park - Rock in Rio 2012 HDTVRip720p.mkv
Формат : Matroska
Версия формата : Version 2
Размер файла : 4,47 Гбайт
Продолжительность : 1 ч. 32 м.
Общий поток : 6910 Кбит/сек
Дата кодирования : UTC 2012-06-01 22:31:00
Программа кодирования : mkvmerge v4.6.0 ('Still Crazy After All These Years') built on Mar 10 2011 02:50:32
Библиотека кодирования : libebml v1.2.0 + libmatroska v1.1.0
Видео
Идентификатор : 1
Формат : AVC
Формат/Информация : Advanced Video Codec
Профиль формата : High@L3.1
Параметр CABAC формата : Да
Параметр ReFrames формата : 5 кадров
Идентификатор кодека : V_MPEG4/ISO/AVC
Продолжительность : 1 ч. 32 м.
Битрейт : 6389 Кбит/сек
Ширина : 1280 пикселей
Высота : 720 пикселей
Соотношение сторон : 16:9
Режим частоты кадров : Постоянный
Частота кадров : 25,000 кадров/сек
Цветовое пространство : YUV
Субдискретизация насыщенности : 4:2:0
Битовая глубина : 8 бит
Тип развёртки : Прогрессивная
Бит/(Пиксели*Кадры) : 0.277
Размер потока : 4,13 Гбайт (92%)
Библиотека кодирования : x264 core 120 r2164 da19765
Настройки программы : cabac=1 / ref=5 / deblock=1:0:0 / analyse=0x3:0x113 / me=umh / subme=9 / psy=1 / psy_rd=1.00:0.00 / mixed_ref=1 / me_range=24 / chroma_me=1 / trellis=1 / 8x8dct=1 / cqm=0 / deadzone=21,11 / fast_pskip=1 / chroma_qp_offset=-2 / threads=12 / sliced_threads=0 / nr=0 / decimate=1 / interlaced=0 / bluray_compat=0 / constrained_intra=0 / bframes=16 / b_pyramid=2 / b_adapt=1 / b_bias=0 / direct=1 / weightb=1 / open_gop=0 / weightp=2 / keyint=250 / keyint_min=25 / scenecut=40 / intra_refresh=0 / rc_lookahead=40 / rc=crf / mbtree=1 / crf=20.0 / qcomp=0.60 / qpmin=0 / qpmax=31 / qpstep=4 / ip_ratio=1.40 / aq=1:1.00
Default : Да
Forced : Нет
Аудио
Идентификатор : 2
Формат : MPEG Audio
Версия формата : Version 1
Профиль формата : Layer 2
Идентификатор кодека : A_MPEG/L2
Идентификатор кодека/Подсказка : MP2
Продолжительность : 1 ч. 32 м.
Вид битрейта : Постоянный
Битрейт : 384 Кбит/сек
Каналы : 2 канала
Частота : 48,0 КГц
Метод сжатия : С потерями
Задержка видео : 20 мс.
Размер потока : 254 Мбайт (6%)
Default : Да
Forced : Нет
Продолжительность: 01:32:00
Видеокодек: MPEG-4 AVC/H.264
Битрейт видео: ~6389kbps
Размер кадра: 1280x720
Качество видео: HDTVRip
Аудиокодек: MP2, 2 канала
Битрейт аудио: ~384kbps
Скриншоты:

Время раздачи: круглосуточно

[Цитировать]



Показать сообщения:    

Текущее время: 28-Май 20:29

Часовой пояс: UTC + 6


Вы не можете начинать темы
Вы не можете отвечать на сообщения
Вы не можете редактировать свои сообщения
Вы не можете удалять свои сообщения
Вы не можете голосовать в опросах
Вы не можете прикреплять файлы к сообщениям
Вы не можете скачивать файлы

!ВНИМАНИЕ!
Сайт не предоставляет электронные версии произведений, а занимается лишь коллекционированием и каталогизацией ссылок, присылаемых и публикуемых на форуме нашими читателями. Если вы являетесь правообладателем какого-либо представленного материала и не желаете, чтобы ссылка на него находилась в нашем каталоге, свяжитесь с нами, и мы незамедлительно удалим ее. Файлы для обмена на трекере предоставлены пользователями сайта, и администрация не несет ответственности за их содержание. Просьба не заливать файлы, защищенные авторскими правами, а также файлы нелегального содержания!