[ Сегодня идет свободное скачивание без начисления Download ]


Статистика раздачи
Нет
 
   
 
Top  
 
 
Универ. Новая общагаСезон 11 с 1 по 4 (из 20)Информация о фильме
Год выхода: 2016
Жанр: Комедия, ситком
Режиссер: Константин Смирнов, Максим Зыков, Тимофей Шоталов, Рустам Мосафир
В ролях: Арарат Кещян, Станислав Ярушин, Анна Кузина, Настасья Самбурская, Анна Хилькевич, Владимир Фекленко, Елена Валюшкина, Андрей Лебедев, Сергей Пиоро, Роман Куперман, Дмитрий Калистратов, Алексей Шаранин, Дарья Щёголева, Наталья Рудова, Иван Руденко, Анатолий Носов, Дмитрий Кузин, Мария Беляева, Александра Булычева, Галина Глушкова, Александр Стекольников, Анастасия Иванова (II), Сергей Рост
О фильме:
«Универ» - новый сезон. Учись! Любимые герои долго готовились, чтобы вернуться с огромной порцией зачетного юмора. И с полезными «лайфхаками» на все случаи жизни. Смотри и учись! Антон и Кристина научат преодолевать зависимость… Майкл научит составлять идеальное резюме… Будейко научит шифроваться… Маша научит, как получить повышение на работе… Яна с Иванычем научат делать вирусное видео… Но главное в «Универе» – это юмор! В новом сезоне его много… и на халяву!
Страна: Россия, ТНТ, "Комеди Клаб Продакшн"
Продолжительность: 4 х ~ 00:25:00
Перевод: Не требуется
Файл
Кодек: х264
Качество: WEB-DLRip-AVC
Свойства видео: 1024x576 (16:9), 25 fps, x264, 2000 Kbps, 0.136 bit/pixel
Свойства аудио: 48,0 kHz, Audio Coding 3, 2 ch, ~192 kbps avg

Внимание! Раздача ведётся путём добавления новых серий.

При каждом добавлении создётся новый торрент. Чтобы начать докачку новой серии, пользователям необходимо сделать следующее:
1) остановить скачивание,
2) удалить старый торрент у себя из клиента (старые серии удалять не надо),
3) скачать новый торрент и запустить его у себя в клиенте вместо старого, при этом указать клиенту путь в старую папку куда и должно происходить скачивание новых серий.
Ваш клиент при этом должен произвести хеширование (проверку) старой папки (если не производит сам - помогите ему сделать это), и будет докачивать только те серии которых у вас ещё нет. Старые серии при этом не удаляются, а продолжают раздаваться!
Eсли вы уже удалили старые серии, то предотвратить повторную закачку старых серий можно, отжав галочку в соответствующих местах при запуске нового торрента.

MI

Общее
Уникальный идентификатор : 189773914079880910685497558331983907868 (0x8EC5205A5FCD88F8907608BE7C43CC1C)
Полное имя : D:TempUniver.11.Novaya.obschaga.2016.WEB-DLRip-AVC by Vovan366(ExKinoRay)Univer.11.Novaya.obschaga.(02.seriya).2016.WEB-DLRip-AVC by Vovan366(ExKinoRay).mkv
Формат : Matroska
Версия формата : Version 4 / Version 2
Размер файла : 391 Мбайт
Продолжительность : 24 м.
Общий поток : 2194 Кбит/сек
Название фильма : Univer.11.Novaya.obschaga.(02.seriya).2016.WEB-DLRip-AVC by Vovan366(ExKinoRay)
Дата кодирования : UTC 2016-10-12 14:41:45
Программа кодирования : mkvmerge v9.4.2 ('So High') 64bit
Библиотека кодирования : libebml v1.3.4 + libmatroska v1.4.5
DURATION : 00:24:53.248000000
NUMBER_OF_FRAMES : 46664
NUMBER_OF_BYTES : 35837952
_STATISTICS_WRITING_APP : mkvmerge v9.4.2 ('So High') 64bit
_STATISTICS_WRITING_DATE_UTC : 2016-10-12 14:41:45
_STATISTICS_TAGS : BPS DURATION NUMBER_OF_FRAMES NUMBER_OF_BYTES
Видео
Идентификатор : 1
Формат : AVC
Формат/Информация : Advanced Video Codec
Профиль формата : High@L4.1
Параметр CABAC формата : Да
Параметр ReFrames формата : 6 кадров
Идентификатор кодека : V_MPEG4/ISO/AVC
Продолжительность : 24 м.
Битрейт : 2000 Кбит/сек
Ширина : 1024 пикселя
Высота : 576 пикселей
Соотношение сторон : 16:9
Режим частоты кадров : Постоянный
Частота кадров : 25,000 кадров/сек
Цветовое пространство : YUV
Субдискретизация насыщенности : 4:2:0
Битовая глубина : 8 бит
Тип развёртки : Прогрессивная
Бит/(Пиксели*Кадры) : 0.136
Размер потока : 349 Мбайт (89%)
Библиотека кодирования : x264 core 146 r2538 121396c
Настройки программы : cabac=1 / ref=6 / deblock=1:-3:-3 / analyse=0x3:0x113 / me=umh / subme=10 / psy=1 / psy_rd=1.00:0.05 / mixed_ref=1 / me_range=48 / chroma_me=1 / trellis=2 / 8x8dct=1 / cqm=0 / deadzone=21,11 / fast_pskip=0 / chroma_qp_offset=-3 / threads=6 / lookahead_threads=1 / sliced_threads=0 / nr=0 / decimate=0 / interlaced=0 / bluray_compat=0 / constrained_intra=0 / bframes=10 / b_pyramid=2 / b_adapt=2 / b_bias=0 / direct=3 / weightb=1 / open_gop=0 / weightp=2 / keyint=250 / keyint_min=25 / scenecut=40 / intra_refresh=0 / rc_lookahead=40 / rc=2pass / mbtree=0 / bitrate=2000 / ratetol=1.0 / qcomp=0.60 / qpmin=0 / qpmax=69 / qpstep=4 / cplxblur=20.0 / qblur=0.5 / vbv_maxrate=14000 / vbv_bufsize=14000 / nal_hrd=none / filler=0 / ip_ratio=1.40 / pb_ratio=1.30 / aq=1:1.00
Default : Да
Forced : Нет
Основные цвета : BT.709
Характеристики трансфера : BT.709
Коэффициенты матрицы : BT.709
Аудио
Идентификатор : 2
Формат : AC-3
Формат/Информация : Audio Coding 3
Расширение режима : CM (complete main)
Параметр Endianness формата : Big
Идентификатор кодека : A_AC3
Продолжительность : 24 м.
Вид битрейта : Постоянный
Битрейт : 192 Кбит/сек
Каналы : 2 канала
Расположение каналов : Front: L R
Частота : 48,0 КГц
Битовая глубина : 16 бит
Метод сжатия : С потерями
Размер потока : 34,2 Мбайт (9%)
Default : Да
Forced : Нет

Скриншоты



[Цитировать]



Показать сообщения:    

Текущее время: 11-Дек 08:58

Часовой пояс: UTC + 3


Вы не можете начинать темы
Вы не можете отвечать на сообщения
Вы не можете редактировать свои сообщения
Вы не можете удалять свои сообщения
Вы не можете голосовать в опросах
Вы не можете прикреплять файлы к сообщениям
Вы не можете скачивать файлы

!ВНИМАНИЕ!
Сайт не предоставляет электронные версии произведений, а занимается лишь коллекционированием и каталогизацией ссылок, присылаемых и публикуемых на форуме нашими читателями. Если вы являетесь правообладателем какого-либо представленного материала и не желаете, чтобы ссылка на него находилась в нашем каталоге, свяжитесь с нами, и мы незамедлительно удалим ее. Файлы для обмена на трекере предоставлены пользователями сайта, и администрация не несет ответственности за их содержание. Просьба не заливать файлы, защищенные авторскими правами, а также файлы нелегального содержания!