[ Сегодня идет свободное скачивание без начисления Download ]


Статистика раздачи
Нет
 
   
 
Top  
 
 
-Путешествие 2: Таинственный остров / Journey 2: The Mysterious Island (2012) BDRip
«Поверь в невозможное - открой невероятное!»
- Русское название: Путешествие 2: Таинственный остров
Оригинальное название: Journey 2: The Mysterious Island
Год выпуска: 2012
Производство: Contrafilm / New Line Cinema / Walden Media [США]
Жанр: Фантастика, фэнтези, боевик, комедия, приключения
Перевод: Дублированный
Субтитры: Вшитые, отключаемые
Язык субтитров: Английский, французский, испанский
Дата мировой премьеры: 19 января 2012
Дата российской премьеры: 9 февраля 2012, «Каро-Премьер»
Дата выхода DVD релиза: 28 мая 2012, «CP Дистрибуция»
Дата выхода Blu-Ray релиза: 28 мая 2012, «CP Дистрибуция»
Режиссер: Брэд Пейтон
Продюсер: Бо Флинн, Шарлотта Клэй Хаггинс, Трип Винсон
Актеры: Дуэйн Джонсон, Майкл Кейн, Джош Хатчерсон, Ванесса Энн Хадженс, Луис Гузман, Кристин Дэвис, Анна Колвелл, Стивен Кодилл, Брэнском Ричмонд, Уолтер Бэнксон
Описание фильма:
На этот раз Шон Андерсон получает закодированный сигнал с просьбой о помощи, причем с загадочного острова, из места, где никакого острова и быть не может. Там обитают странные формы жизни, скрываются горы золота, смертоносные вулканы и не одна ошеломляющая тайна. Отчиму Шона, не сумевшему остановить его, ничего не остается, как тоже присоединиться к поискам. Вместе с пилотом вертолета и его прекрасной и решительной дочерью им предстоит найти остров, спасти его одинокого обитателя и немедленно покинуть это место, прежде чем землетрясение скроет остров под водой и похоронит навеки его сокровища.

Продолжительность: 01:34:10
Качество видео: BDRip
Видеокодек: MPEG4_AVC / H.264
Битрейт видео: ~13800 kbps, Бит/(Пиксели*Кадры):0.279
Размер кадра: 1920x1080
Аудио 1: AC3 5.1, 448 kbps [Русский]
Аудио 2: AC3 5.1, 640 kbps [Английский]

MediaInfo...

Полное имя : D:\Путешествие.2.Таинственный.остров-Journey.2.The.Mysterious.Island.(2012).1080p.BDRip.[3D].mkv
Формат : Matroska
Версия формата : Version 2
Размер файла : 10,0 Гбайт
Продолжительность : 1 ч. 34 м.
Общий поток : 15,2 Мбит/сек
Дата кодирования : UTC 2012-05-22 08:44:15
Программа кодирования : mkvmerge v4.6.0 ('Still Crazy After All These Years') сборка от Mar 10 2011 02:50:32
Библиотека кодирования : libebml v1.2.0 + libmatroska v1.1.0
Видео
Идентификатор : 1
Формат : AVC
Формат/Информация : Advanced Video Codec
Профиль формата : High@L4.1
MultiView_Count : 2
MultiView_Layout : Both Eye
Параметр CABAC формата : Да
Параметр ReFrames формата : 4 кадра
Параметры GOP формата : M=4, N=52
Идентификатор кодека : V_MPEG4/ISO/AVC
Продолжительность : 1 ч. 34 м.
Битрейт : 13,8 Мбит/сек
Ширина : 1920 пикс.
Высота : 1080 пикс.
Соотношение сторон : 16:9
Частота кадров : 23,976 кадр/сек
Цветовое пространство : YUV
Подвыборка цветности : 4:2:0
Битовая глубина : 8 бит
Тип развёртки : Прогрессивная
Бит/(Пиксели*Кадры) : 0.279
Размер потока : 9,11 Гбайт (91%)
Библиотека кодирования : x264 core 124 r2197 69a0443
Настройки программы : cabac=1 / ref=4 / deblock=1:-3:-3 / analyse=0x3:0x113 / me=umh / subme=9 / psy=1 / psy_rd=1.00:0.15 / mixed_ref=1 / me_range=16 / chroma_me=1 / trellis=1 / 8x8dct=1 / cqm=0 / deadzone=21,11 / fast_pskip=1 / chroma_qp_offset=-3 / threads=12 / sliced_threads=0 / nr=0 / decimate=1 / interlaced=0 / bluray_compat=0 / constrained_intra=0 / bframes=3 / b_pyramid=2 / b_adapt=1 / b_bias=0 / direct=3 / weightb=1 / open_gop=0 / weightp=2 / keyint=250 / keyint_min=23 / scenecut=40 / intra_refresh=0 / rc_lookahead=40 / rc=crf / mbtree=1 / crf=20.0 / qcomp=0.60 / qpmin=10 / qpmax=69 / qpstep=4 / ip_ratio=1.40 / aq=1:1.00
Аудио #1
Идентификатор : 2
Формат : AC-3
Формат/Информация : Audio Coding 3
Расширение режима : CM (complete main)
Идентификатор кодека : A_AC3
Продолжительность : 1 ч. 34 м.
Вид битрейта : Постоянный
Битрейт : 448 Кбит/сек
Каналы : 6 каналов
Расположение каналов : Front: L C R, Side: L R, LFE
Частота : 48,0 КГц
Битовая глубина : 16 бит
Метод сжатия : С потерями
Размер потока : 302 Мбайт (3%)
Заголовок : Дубляж
Язык : Russian
Аудио #2
Идентификатор : 3
Формат : AC-3
Формат/Информация : Audio Coding 3
Расширение режима : CM (complete main)
Идентификатор кодека : A_AC3
Продолжительность : 1 ч. 34 м.
Вид битрейта : Постоянный
Битрейт : 640 Кбит/сек
Каналы : 6 каналов
Расположение каналов : Front: L C R, Side: L R, LFE
Частота : 48,0 КГц
Битовая глубина : 16 бит
Метод сжатия : С потерями
Размер потока : 431 Мбайт (4%)
Заголовок : Original
Язык : English
Текст #1
Идентификатор : 4
Формат : UTF-8
Идентификатор кодека : S_TEXT/UTF8
Идентификатор кодека/Информация : UTF-8 Plain Text
Язык : English
Текст #2
Идентификатор : 5
Формат : UTF-8
Идентификатор кодека : S_TEXT/UTF8
Идентификатор кодека/Информация : UTF-8 Plain Text
Заголовок : SDH
Язык : English
Текст #3
Идентификатор : 6
Формат : UTF-8
Идентификатор кодека : S_TEXT/UTF8
Идентификатор кодека/Информация : UTF-8 Plain Text
Язык : French
Текст #4
Идентификатор : 7
Формат : UTF-8
Идентификатор кодека : S_TEXT/UTF8
Идентификатор кодека/Информация : UTF-8 Plain Text
Язык : Spanish
Меню
00:00:00.000 : en:00:00:00.000
00:10:52.402 : en:00:10:52.402
00:19:13.277 : en:00:19:13.277
00:30:06.805 : en:00:30:06.805
00:39:21.442 : en:00:39:21.442
00:49:58.662 : en:00:49:58.662
00:59:03.457 : en:00:59:03.457
01:09:11.773 : en:01:09:11.773
01:19:27.096 : en:01:19:27.096
01:26:03.492 : en:01:26:03.492
Скриншоты:


Время раздачи: 24/7 (до 10 скачавших)

[Цитировать]



Показать сообщения:    

Текущее время: 08-Дек 12:49

Часовой пояс: UTC + 3


Вы не можете начинать темы
Вы не можете отвечать на сообщения
Вы не можете редактировать свои сообщения
Вы не можете удалять свои сообщения
Вы не можете голосовать в опросах
Вы не можете прикреплять файлы к сообщениям
Вы не можете скачивать файлы

!ВНИМАНИЕ!
Сайт не предоставляет электронные версии произведений, а занимается лишь коллекционированием и каталогизацией ссылок, присылаемых и публикуемых на форуме нашими читателями. Если вы являетесь правообладателем какого-либо представленного материала и не желаете, чтобы ссылка на него находилась в нашем каталоге, свяжитесь с нами, и мы незамедлительно удалим ее. Файлы для обмена на трекере предоставлены пользователями сайта, и администрация не несет ответственности за их содержание. Просьба не заливать файлы, защищенные авторскими правами, а также файлы нелегального содержания!