[ Сегодня идет свободное скачивание без начисления Download ]


Статистика раздачи
Скачал: [ 4 ]
 
   
 
Top  
 
 
Птичка на проводе / Bird on a Wire
Информация о фильме
Название: Птичка на проводе
Оригинальное название: Bird on a Wire
Год выхода: 1990
Жанр: боевик, триллер, комедия, приключения
Режиссер: Джон Бэдэм
В ролях: Мэл Гибсон, Голди Хоун, Дэвид Кэрредин, Билл Дьюк, Стивен Тоболовски, Джоан Северанс, Гарри Цезар, Джефф Кори, Алекс Брухански, Джон Пайпер-Фергюсон
О фильме:
Дела Рика Джармина, живущего тайной жизнью по специально разработанной ФБР программе защиты свидетелей, складывается не лучшим образом. Дело в том, что пятнадцать лет назад он дал показания против полицейского, промышляющего торговлей наркотиками, что позволило усадить негодяя за решетку. Преступник, отсидевший свой срок, решает отомстить «стукачу» и начинает охоту на Джармина. Случайно Рик сталкивается с Мэриэнн Грэйвз, своей бывшей невестой. Мэриэнн, естественно, узнает его, что облегчает задачу убийцам, следующим за Джармином по пятам. Теперь бывшим возлюбленным вместе предстоит спасаться от злодеев, но именно это помогает им вернуть утраченную любовь.

Страна: США
Студия: Universal Pictures
Продолжительность: 01:50:31
Перевод: Профессиональный (многоголосый, закадровый) Neoclassica + Авторский (одноголосый, закадровый) А.Михалёв
Файл
Формат: Matroska
Качество: WEB-DLRip-AVC
Видео: 1092x464 at 23.976 fps, [email protected], ~1500 kbps
Аудио#1: Russian: 48 kHz, AC3, 2/0 (L,R) ch, ~192.00 kbps |Многоголосый закадровый, Neoclassica|
Аудио#2: Russian: 48 kHz, AC3, 2/0 (L,R) ch, ~192.00 kbps |Авторский, А.Михалёв|
Субтитры: Russian, English

M/I

General
Unique ID : 314300568584871872711884088021026178875 (0xEC741670B9B733C7BF5FB0D93A2D873B)
Complete name : F:FILMSПтичка на проводе.(1990).WEB-DLRip-AVC.[-=DoMiNo=-].mkv
Format : Matroska
Format version : Version 4 / Version 2
File size : 1.45 GiB
Duration : 1 h 50 min
Overall bit rate : 1 884 kb/s
Movie name : Птичка на проводе
Deion : Дела Рика Джармина, живущего тайной жизнью по специально разработанной ФБР программе защиты свидетелей, складывается не лучшим образом. Дело в том, что пятнадцать лет назад он дал показания против полицейского, промышляющего торговлей наркотиками, что позволило усадить негодяя за решетку. Преступник, отсидевший свой срок, решает отомстить «стукачу» и начинает охоту на Джармина. Случайно Рик сталкивается с Мэриэнн Грэйвз, своей бывшей невестой. Мэриэнн, естественно, узнает его, что облегчает задачу убийцам, следующим за Джармином по пятам. Теперь бывшим возлюбленным вместе предстоит спасаться от злодеев, но именно это помогает им вернуть утраченную любовь.
Writing application : XviD4PSP 7.0.304 DAILY
Writing library : Lavf57.41.100 / Lavf57.41.100
Cover : Yes
Attachments : cover.jpg
ACTORS : Мэл Гибсон, Голди Хоун, Дэвид Кэрредин, Билл Дьюк, Стивен Тоболовски, Джоан Северанс, Гарри Цезар, Джефф Кори, Алекс Брухански, Джон Пайпер-Фергюсон....
COUNTRY : США
DATE : 1990
DIRECTOR : Джон Бэдэм
ENCODING_INFO : MATROSKA,WEBM > MKV / H264 > X264 VBR-2P 1495kbps Произвольный / AC3 > COPY / AC3 > COPY
GENRE : боевик, триллер, комедия, приключения
HD_VIDEO : 1
IMDB_RATING : 5.90
ITUNEXTC : mpaa|PG-13|300|
MEDIA_TYPE : 9
ORIGINAL_TITLE : Bird on a Wire
PRODUCER : Роб Коэн, Фитч Кэди, Роберт В. Корт
RATING : 7.33
WRITER : Луис Веноста, Эрик Лернер, Дэвид Зельцер
Video
ID : 1
Format : AVC
Format/Info : Advanced Video Codec
Format profile : [email protected]
Format settings, CABAC : Yes
Format settings, ReFrames : 12 frames
Codec ID : V_MPEG4/ISO/AVC
Duration : 1 h 50 min
Bit rate : 1 495 kb/s
Width : 1 092 pixels
Height : 464 pixels
Display aspect ratio : 2.35:1
Frame rate mode : Constant
Frame rate : 23.976 (24000/1001) FPS
Color space : YUV
Chroma subsampling : 4:2:0
Bit depth : 8 bits
Scan type : Progressive
Bits/(Pixel*Frame) : 0.123
Stream size : 1.13 GiB (78%)
Title : Bird on a Wire (1990)_RIP_[-=DoMiNo=-]
Writing library : x264 core 148 r2721M 72d53ab
Encoding settings : cabac=1 / ref=12 / deblock=1:-3:-3 / analyse=0x3:0x133 / me=umh / subme=11 / psy=1 / psy_rd=1.00:0.10 / mixed_ref=1 / me_range=48 / chroma_me=1 / trellis=2 / 8x8dct=1 / cqm=0 / deadzone=21,11 / fast_pskip=0 / chroma_qp_offset=-3 / threads=5 / lookahead_threads=1 / sliced_threads=0 / nr=0 / decimate=1 / interlaced=0 / bluray_compat=0 / constrained_intra=0 / bframes=11 / b_pyramid=2 / b_adapt=2 / b_bias=0 / direct=3 / weightb=1 / open_gop=0 / weightp=2 / keyint=230 / keyint_min=23 / scenecut=40 / intra_refresh=0 / rc_lookahead=60 / rc=2pass / mbtree=1 / bitrate=1495 / ratetol=1.0 / qcomp=0.70 / qpmin=0 / qpmax=69 / qpstep=4 / cplxblur=20.0 / qblur=0.5 / ip_ratio=1.40 / aq=1:1.00
Language : English
Default : Yes
Forced : No
Color range : Limited
Color primaries : BT.709
Transfer characteristics : BT.709
Matrix coefficients : BT.709
DURATION : 01:50:31.291000000
Audio #1
ID : 2
Format : AC-3
Format/Info : Audio Coding 3
Mode extension : CM (complete main)
Format settings, Endianness : Big
Codec ID : A_AC3
Duration : 1 h 50 min
Bit rate mode : Constant
Bit rate : 192 kb/s
Channel(s) : 2 channels
Channel positions : Front: L R
Sampling rate : 48.0 kHz
Frame rate : 31.250 FPS (1536 spf)
Bit depth : 32 bits
Compression mode : Lossy
Stream size : 152 MiB (10%)
Title : AC3, 2 ch, 192 Kbps, MVO, 'Neoclassica'
Language : Russian
Default : Yes
Forced : No
DURATION : 01:50:31.360000000
Audio #2
ID : 3
Format : AC-3
Format/Info : Audio Coding 3
Mode extension : CM (complete main)
Format settings, Endianness : Big
Codec ID : A_AC3
Duration : 1 h 50 min
Bit rate mode : Constant
Bit rate : 192 kb/s
Channel(s) : 2 channels
Channel positions : Front: L R
Sampling rate : 48.0 kHz
Frame rate : 31.250 FPS (1536 spf)
Bit depth : 32 bits
Compression mode : Lossy
Stream size : 152 MiB (10%)
Title : AC3, 2 ch, 192 Kbps, AVO, Алексей Михалёв
Language : Russian
Default : No
Forced : No
DURATION : 01:50:31.360000000
Text #1
ID : 4
Format : UTF-8
Codec ID : S_TEXT/UTF8
Codec ID/Info : UTF-8 Plain Text
Language : Russian
Default : Yes
Forced : No
DURATION : 01:47:18.063000000
Text #2
ID : 5
Format : UTF-8
Codec ID : S_TEXT/UTF8
Codec ID/Info : UTF-8 Plain Text
Language : English
Default : No
Forced : No
DURATION : 01:50:12.903000000
Text #3
ID : 6
Format : UTF-8
Codec ID : S_TEXT/UTF8
Codec ID/Info : UTF-8 Plain Text
Language : English
Default : No
Forced : No
DURATION : 01:50:14.780000000
Text #4
ID : 7
Format : UTF-8
Codec ID : S_TEXT/UTF8
Codec ID/Info : UTF-8 Plain Text
Language : Spanish
Default : No
Forced : No
DURATION : 01:46:53.090000000
Text #5
ID : 8
Format : UTF-8
Codec ID : S_TEXT/UTF8
Codec ID/Info : UTF-8 Plain Text
Language : Estonian
Default : No
Forced : No
DURATION : 01:46:50.990000000
Menu
00:00:00.000 : :Opening Credits
00:06:28.000 : :A Chance Meeting
00:12:15.000 : :Relocation Time
00:15:32.000 : :Blasts From The Past
00:22:13.000 : :No Butts About It
00:27:47.000 : :Birds On A Wire
00:35:27.000 : :Taking Flight
00:45:49.000 : :Cash, Apology, Hair
00:51:29.000 : :Butch On Wheels
00:55:29.000 : :Bird Watching
00:58:05.000 : :An Old Flame Treats A Fresh Wound
01:05:14.000 : :The unfriendly Skies
01:11:25.000 : :Love At The Roach Motel
01:20:47.000 : :Visiting Lou
01:26:24.000 : :Showdown At The Lion's Den
01:45:32.000 : :End Credits: Mister Wiggly

Скриншоты

[Цитировать]



Показать сообщения:    

Текущее время: 06-Дек 20:59

Часовой пояс: UTC + 3


Вы не можете начинать темы
Вы не можете отвечать на сообщения
Вы не можете редактировать свои сообщения
Вы не можете удалять свои сообщения
Вы не можете голосовать в опросах
Вы не можете прикреплять файлы к сообщениям
Вы не можете скачивать файлы

!ВНИМАНИЕ!
Сайт не предоставляет электронные версии произведений, а занимается лишь коллекционированием и каталогизацией ссылок, присылаемых и публикуемых на форуме нашими читателями. Если вы являетесь правообладателем какого-либо представленного материала и не желаете, чтобы ссылка на него находилась в нашем каталоге, свяжитесь с нами, и мы незамедлительно удалим ее. Файлы для обмена на трекере предоставлены пользователями сайта, и администрация не несет ответственности за их содержание. Просьба не заливать файлы, защищенные авторскими правами, а также файлы нелегального содержания!