[ Сегодня идет свободное скачивание без начисления Download ]


Статистика раздачи
Нет
 
   
 
Top  
 
 
Искусственный интеллект. Доступ неограничен / I.T. (2016) WEB-DLRip - Производство: Ирландия, Франция, Дания
Жанр: Триллер, Драма, Криминал, Детектив
Режиссер: Джон Мур
Продюсер: Пирс Броснан, Николя Картье, Ромильда Де Лука
Актеры: Пирс Броснан, Джейсон Бэрри, Карен Москоу, Кай Риссдал, Брайн Малвей, Мартин Хайнди, Рико Хисон, Анна Фрил, Стефани Скотт, Майкл Лысак.
Описание:
Вся жизнь Майка Ригана и его семьи построена на последних достижениях искусственного интеллекта и высоких технологий, а его «умный» дом — настоящее произведение технического искусства. Когда Майк пытается прекратить зашедшие слишком далеко отношения своего IT-специалиста Эда с юной дочерью, жизнь Ригана и его семьи оказываются под угрозой. Они попадают в ловушку созданных Риганом «умных технологий», которыми теперь управляет безумный гений Эд, вовлекая Ригана в опасную и непредсказуемую игру.

Возраст: 16+ (зрителям, достигшим 16 лет)
Дата мировой премьеры: 9 сентября 2016
Дата российской премьеры: 22 сентября 2016
Релиз от: KOSHARA
Продолжительность: 01:35:07
Качество видео: WEB-DLRip
Перевод: Дублированный (Чистый звук)
Реклама: Присутствуют голосовые и текстовые вставки рекламы. Начальный рекламный ролик вырезан.
Видео: Xvid, 720х304, ~1646 кб/с
Аудио: AC3, 2 ch, 384 кб/с, CBR

Mediainfo:

Общее
Полное имя                               : D:\Фильмы\Мои раздачи\Искусственный интеллект. Доступ неограничен\IsK.InTeLekt.2O16.D.WEB-DLRip.14OOMB.avi
Формат                                   : AVI
Формат/Информация                        : Audio Video Interleave
Размер файла                             : 1,35 Гбайт
Продолжительность                        : 1 ч. 35 м.
Общий поток                              : 2039 Кбит/сек
Программа кодирования                    : VirtualDubMod 1.5.10.2 (build 2540/release)
Библиотека кодирования                   : VirtualDub build 35390/release
Видео
Идентификатор                            : 0
Формат                                   : MPEG-4 Visual
Профиль формата                          : Advanced Simple@L5
Параметр BVOP формата                    : 2
Параметр QPel формата                    : Нет
Параметр GMC формата                     : Без точки перехода
Параметр матрицы формата                 : Выборочная
Идентификатор кодека                     : XVID
Идентификатор кодека/Подсказка           : XviD
Продолжительность                        : 1 ч. 35 м.
Битрейт                                  : 1646 Кбит/сек
Ширина                                   : 720 пикселей
Высота                                   : 304 пикселя
Соотношение сторон                       : 2,35:1
Частота кадров                           : 23,976 кадра/сек
Цветовое пространство                    : YUV
Субдискретизация насыщенности            : 4:2:0
Битовая глубина                          : 8 бит
Тип развёртки                            : Прогрессивная
Метод сжатия                             : С потерями
Бит/(Пиксели*Кадры)                      : 0.314
Размер потока                            : 1,09 Гбайт (81%)
Библиотека кодирования                   : XviD 1.2.1 (UTC 2008-12-04)
Аудио
Идентификатор                            : 1
Формат                                   : AC-3
Формат/Информация                        : Audio Coding 3
Расширение режима                        : CM (complete main)
Параметр Endianness формата              : Big
Идентификатор кодека                     : 2000
Продолжительность                        : 1 ч. 35 м.
Вид битрейта                             : Постоянный
Битрейт                                  : 384 Кбит/сек
Каналы                                   : 2 канала
Расположение каналов                     : Front: L R
Частота                                  : 48,0 КГц
Битовая глубина                          : 16 бит
Метод сжатия                             : С потерями
Задержка видео                           : 8 мс.
Размер потока                            : 261 Мбайт (19%)
Выравнивание                             : Разделение по промежуткам
Продолжительность промежутка             : 42  мс. (1,00 видеокадр)
Время предзагрузки промежутка            : 500  мс.
Скриншоты:
/9d8a612071be.png">

[Цитировать]



Показать сообщения:    

Текущее время: 25-Апр 00:57

Часовой пояс: UTC + 6


Вы не можете начинать темы
Вы не можете отвечать на сообщения
Вы не можете редактировать свои сообщения
Вы не можете удалять свои сообщения
Вы не можете голосовать в опросах
Вы не можете прикреплять файлы к сообщениям
Вы не можете скачивать файлы

!ВНИМАНИЕ!
Сайт не предоставляет электронные версии произведений, а занимается лишь коллекционированием и каталогизацией ссылок, присылаемых и публикуемых на форуме нашими читателями. Если вы являетесь правообладателем какого-либо представленного материала и не желаете, чтобы ссылка на него находилась в нашем каталоге, свяжитесь с нами, и мы незамедлительно удалим ее. Файлы для обмена на трекере предоставлены пользователями сайта, и администрация не несет ответственности за их содержание. Просьба не заливать файлы, защищенные авторскими правами, а также файлы нелегального содержания!