[ Сегодня идет свободное скачивание без начисления Download ]


Статистика раздачи
Скачал: [ 3 ]
 
   
 
Top  
 
 
Осада Жадовиля / The Siege of Jadotville Информация о фильме
Название: Осада Жадовиля
Оригинальное название: The Siege of Jadotville
Год выхода: 2016
Жанр: триллер, драма
Режиссер: Ричи Смит
В ролях: Джейми Дорнан, Марк Стронг, Микаэл Персбрандт, Джейсон О’Мара, Эмманюэль Сенье, Гийом Кане, Майкл МакЭлхаттон, Сэм Кили
О фильме: Фильм расскажет о политическом кризисе в Конго, который охватил страну после провозглашения независимости в 1960 году от Бельгии. Долгое время эта африканская страна была колонией и управлялась из Европы, и, как только конголезцам дали волю, они устроили у себя на родине делёж власти, переросший в гражданскую войну. В итоге, в 1960 году туда ввели миротворческую миссию ООН, а все бельгийские силы попросили удалиться. Удалились далеко не все, и в 1961 году ирландский батальон, насчитывающий 150 бойцов, попал в осаду трёх тысяч французских и бельгийских наёмников, работавших на горнодобывающую компанию...

Страна: Ирландия, ЮАР
Студия: Parallel Films
Продолжительность: 01:48:06
Перевод: Любительский (многоголосый, закадровый) | Синема УС
Субтитры: Нет
ПРИСУТСТВУЕТ РЕКЛАМА!
Семпл
Файл
Кодек: XviD
Качество: WEB-DLRip
Видео: 688x288 (2.39:1), 23.976 fps, XviD build 73 ~831 kbps avg, 0.17 bit/pixel
Звук: 48 kHz, MPEG Layer 3, 2 ch, ~128.00 kbps avg

MediaInfo

General
Complete name : The.Siege.of.Jadotville.2016.WEB-DLRip.ot.Portablius.avi
Format : AVI
Format/Info : Audio Video Interleave
File size : 749 MiB
Duration : 1 h 48 min
Overall bit rate : 969 kb/s
Writing application : VirtualDubMod 1.5.10.3 | www.virtualdub-fr.org || (build 2550/release)
Writing library : VirtualDubMod build 2550/release
Video
ID : 0
Format : MPEG-4 Visual
Format profile : Advanced [email protected]
Format settings, BVOP : 1
Format settings, QPel : No
Format settings, GMC : No warppoints
Format settings, Matrix : Custom
Codec ID : XVID
Codec ID/Hint : XviD
Duration : 1 h 48 min
Bit rate : 831 kb/s
Width : 688 pixels
Height : 288 pixels
Display aspect ratio : 2.40:1
Frame rate : 23.976 (23976/1000) FPS
Color space : YUV
Chroma subsampling : 4:2:0
Bit depth : 8 bits
Scan type : Progressive
Compression mode : Lossy
Bits/(Pixel*Frame) : 0.175
Stream size : 643 MiB (86%)
Writing library : XviD 73
Audio
ID : 1
Format : MPEG Audio
Format version : Version 1
Format profile : Layer 3
Codec ID : 55
Codec ID/Hint : MP3
Duration : 1 h 48 min
Bit rate mode : Constant
Bit rate : 128 kb/s
Channel(s) : 2 channels
Sampling rate : 48.0 kHz
Compression mode : Lossy
Stream size : 99.0 MiB (13%)
Alignment : Aligned on interleaves
Interleave, duration : 42 ms (1.00 video frame)
Interleave, preload duratio : 504 ms
Writing library : LAME3.99r
Encoding settings : -m s -V 4 -q 2 -lowpass 17 -b 128

Скриншоты

[Цитировать]



Показать сообщения:    

Текущее время: 05-Дек 13:35

Часовой пояс: UTC + 3


Вы не можете начинать темы
Вы не можете отвечать на сообщения
Вы не можете редактировать свои сообщения
Вы не можете удалять свои сообщения
Вы не можете голосовать в опросах
Вы не можете прикреплять файлы к сообщениям
Вы не можете скачивать файлы

!ВНИМАНИЕ!
Сайт не предоставляет электронные версии произведений, а занимается лишь коллекционированием и каталогизацией ссылок, присылаемых и публикуемых на форуме нашими читателями. Если вы являетесь правообладателем какого-либо представленного материала и не желаете, чтобы ссылка на него находилась в нашем каталоге, свяжитесь с нами, и мы незамедлительно удалим ее. Файлы для обмена на трекере предоставлены пользователями сайта, и администрация не несет ответственности за их содержание. Просьба не заливать файлы, защищенные авторскими правами, а также файлы нелегального содержания!