[ Сегодня идет свободное скачивание без начисления Download ]


Статистика раздачи
Скачал: [ 2 ]
 
   
 
Top  
 
 
Гонки по вертикали (1983) Информация о фильме
Название: Гонки по вертикали
Год выхода: 1983
Жанр: Детектив
Режиссер: Александр Муратов
В ролях: Валентин Гафт, Андрей Мягков, Владимир Дружников, Валерий Носик, Галина Польских, Станислав Чекан, Ирина Бразговка, Зоя Василькова, Капитолина Ильенко, Ервант Арзуманян, Зинаида Дехтярева, Дмитрий Орловский, Владимир Сальников, Николай Засухин, Сергей Пономаренко, Нинель Мышкова, Елена Капица, Любовь Калюжная, Радий Афанасьев
О фильме:
Следователь Станислав Тихонов (Мягков) поймал вора-рецидивиста Алексея Дедушкина (Гафт) по кличке Батон с чужим чемоданом, в котором находился редкий и ценный орден Андрея Первозванного, принадлежавший когда-то, как было выяснено позже, барону фон Дицу. Чемодан явно был собственностью иностранца, но владелец о пропаже в милицию не заявил, на что наверняка были свои причины. Тихонов и его помощник Саша были вынуждены отпустить Батона. Обаятельный вор, поселившийся у старой зазнобы (Польских), снова взялся за работу. Он обокрал по объявлению о покупке дачи квартиру генерала, взяв по сберкнижке на предъявителя крупную сумму денег, а в самой квартире — ценные вещи и револьвер с патронами. Ночью обокрал меховой отдел магазина, занялся уже совсем не своим делом — ведь он всегда был вором, промышляющим на вокзалах и в поездах. А следователь тем временем продолжал искать владельца чемодана и нашел господина Кастелли, "застукав" его при покупке антикварных ценностей. Тому пришлось написать заявление о пропавшем чемодане, теперь Батона ждал приличный срок заключения. Тихонов пообещал ему во время допросов, что посадит. Загнанный в угол Батон зарядил револьвер...
Страна: CCCP
Продолжительность: 03:17:42
Перевод: не требуется
Файл
Кодек: x264
Качество: DVDRip-AVC
Видео: MPEG-4 AVC, ~1239 Кбит/с, 720x576@768x576
Звук: AC3, 6 ch, 384 Кбит/с

Скриншоты

Медиа-Инфо

raw [info]: 720x576p 16:15 @ 25/1 fps (cfr)
x264 [info]: using SAR=16/15
x264 [info]: using cpu capabilities: MMX2 SSE2Fast SSSE3 SSE4.2 AVX
x264 [info]: profile High, level 4.1
x264 [info]: frame I:493 Avg QP:16.75 size: 45632
x264 [info]: frame P:20802 Avg QP:18.47 size: 16101
x264 [info]: frame B:77964 Avg QP:20.91 size: 3358
=============================================================================================================
Общее
Уникальный идентификатор : 170636835330663266069435028972347693294 (0x805F758620C027B38E7D3106DAFD98EE)
Полное имя : R:МОИ РИПЫГонки по вертикали_1983-DVDRip-AVCГонки-1.mkv
Формат : Matroska
Версия формата : Version 2
Размер файла : 755 Мбайт
Продолжительность : 1 ч. 3 м.
Общий поток : 1656 Кбит/сек
Дата кодирования : UTC 2015-11-10 03:14:07
Программа кодирования : mkvmerge v5.8.0 ('No Sleep / Pillow') built on Sep 2 2012 15:37:04
Библиотека кодирования : libebml v1.2.3 + libmatroska v1.3.0
Видео
Идентификатор : 1
Формат : AVC
Формат/Информация : Advanced Video Codec
Профиль формата : High@L4.1
Параметр CABAC формата : Да
Параметр ReFrames формата : 15 кадров
Идентификатор кодека : V_MPEG4/ISO/AVC
Продолжительность : 1 ч. 3 м.
Битрейт : 1239 Кбит/сек
Ширина : 720 пикселей
Высота : 576 пикселей
Соотношение сторон : 4:3
Режим частоты кадров : Постоянный
Частота кадров : 25,000 кадров/сек
Стандарт вещания : PAL
Цветовое пространство : YUV
Субдискретизация насыщенности : 4:2:0
Битовая глубина : 8 бит
Тип развёртки : Прогрессивная
Бит/(Пиксели*Кадры) : 0.120
Размер потока : 565 Мбайт (75%)
Библиотека кодирования : x264 core 146 r2538 121396c
Настройки программы : cabac=1 / ref=15 / deblock=1:-2:-2 / analyse=0x3:0x133 / me=umh / subme=10 / psy=1 / psy_rd=1.05:0.03 / mixed_ref=1 / me_range=32 / chroma_me=1 / trellis=2 / 8x8dct=1 / cqm=0 / deadzone=21,11 / fast_pskip=1 / chroma_qp_offset=-3 / threads=12 / lookahead_threads=3 / sliced_threads=0 / nr=0 / decimate=1 / interlaced=0 / bluray_compat=0 / constrained_intra=0 / bframes=10 / b_pyramid=2 / b_adapt=2 / b_bias=0 / direct=1 / weightb=1 / open_gop=0 / weightp=2 / keyint=250 / keyint_min=25 / scenecut=40 / intra_refresh=0 / rc=crf / mbtree=0 / crf=18.5 / qcomp=0.63 / qpmin=0 / qpmax=39 / qpstep=4 / ip_ratio=1.40 / pb_ratio=1.30 / aq=1:1.00
Язык : English
Default : Да
Forced : Нет
Цветовой диапазон : Limited
Основные цвета : BT.601 PAL
Характеристики трансфера : BT.470 System B, BT.470 System G
Коэффициенты матрицы : BT.601
Аудио
Идентификатор : 2
Формат : AC-3
Формат/Информация : Audio Coding 3
Расширение режима : CM (complete main)
Параметр Endianness формата : Big
Идентификатор кодека : A_AC3
Продолжительность : 1 ч. 3 м.
Вид битрейта : Постоянный
Битрейт : 384 Кбит/сек
Каналы : 6 каналов
Расположение каналов : Front: L C R, Side: L R, LFE
Частота : 48,0 КГц
Метод сжатия : С потерями
Размер потока : 175 Мбайт (23%)
Язык : Russian
Default : Да
Forced : Нет

[Цитировать]



Показать сообщения:    

Текущее время: 07-Дек 23:20

Часовой пояс: UTC + 3


Вы не можете начинать темы
Вы не можете отвечать на сообщения
Вы не можете редактировать свои сообщения
Вы не можете удалять свои сообщения
Вы не можете голосовать в опросах
Вы не можете прикреплять файлы к сообщениям
Вы не можете скачивать файлы

!ВНИМАНИЕ!
Сайт не предоставляет электронные версии произведений, а занимается лишь коллекционированием и каталогизацией ссылок, присылаемых и публикуемых на форуме нашими читателями. Если вы являетесь правообладателем какого-либо представленного материала и не желаете, чтобы ссылка на него находилась в нашем каталоге, свяжитесь с нами, и мы незамедлительно удалим ее. Файлы для обмена на трекере предоставлены пользователями сайта, и администрация не несет ответственности за их содержание. Просьба не заливать файлы, защищенные авторскими правами, а также файлы нелегального содержания!