[ Сегодня идет свободное скачивание без начисления Download ]


Статистика раздачи
Нет
 
   
 
Top  
 
 
Стрингер / Nightcrawler (2014) Название: Стрингер
Оригинальное название: Nightcrawler
Год выпуска: 2014
Жанр: Триллер, драма, криминал
Выпущено: США, Bold Films
Режиссер: Дэн Гилрой
В ролях: Джейк Джилленхол, Рене Руссо, Риз Ахмед, Билл Пэкстон, Майкл Пападжон, Марко Родригес, Джеймс Хуанг, Кент Шокнек, Пэт Харви, Шэрон Тэй, Рик Гарсиа, Леа Фредкин, Билл Сьюард, Рик Чэмберс, Холли Ханнула, Джонатан Койн, Ник Чакон, Кевин Даниган, Эрик Ланж, Кэролин Гилрой
О фильме:
Луи Блум — молодой безработный парень, который всеми способами пытается устроиться на работу. Совершенно случайно ему удается записать на видео угон автомобиля, после чего он продает запись одной из телекомпаний города, представители которой приглашают его на работу репортера. Его специализацией становятся репортажи на криминальную тематику. Рассказывая о преступлениях, которые происходят в элитных районах города, Луи смог стать довольно известным человеком, поскольку его репортажи привлекают огромное количество зрителей. Но такая работа оказывается очень опасной, поскольку в кадр Луи могут попасть жестокие преступники, которые никогда не оставляют свидетелей. Кроме этого, после очередного репортажа с места преступления, Луи становится главным подозреваемым в его совершении..

Качество: BDRip 1080p
Видео: MPEG-4 AVC, 12400 Кбит/с, 1920x800
Аудио: Русский (AC3, 6 ch, 384 Кбит/с), английский (DTS, 6 ch, 1510 Кбит/с)
Продолжительность: 01:58:05
Озвучивание: Профессиональное (многоголосное) [iTunes]

Скриншоты

MediaInfo

General
Unique ID : 252371788265894178699976542481643955694 (0xBDDD09D57FB5594681F34D84CDC365EE)
Complete name : D:ВидеоCtP1HgeP.2014.P.BDRip.1080p.mkv
Format : Matroska
Format version : Version 4 / Version 2
File size : 12.0 GiB
Duration : 1h 58mn
Overall bit rate : 14.5 Mbps
Movie name : Nightcrawler.2014.1080p.BluRay.x264.DTS.RoSubbed-playHD
Encoded date : UTC 2015-08-20 18:32:12
Writing application : mkvmerge v6.5.0 ('Isn't she lovely') built on Oct 20 2013 12:50:05
Writing library : libebml v1.3.0 + libmatroska v1.4.1
DURATION : 01:58:05.291000000
NUMBER_OF_FRAMES : 664246
NUMBER_OF_BYTES : 1336462952
_STATISTICS_WRITING_APP : mkvmerge v7.3.0 ('Nouages') 64bit built on Oct 22 2014 18:53:34
_STATISTICS_WRITING_DATE_UTC : 2015-02-01 10:54:23
_STATISTICS_TAGS : BPS DURATION NUMBER_OF_FRAMES NUMBER_OF_BYTES
Video
ID : 1
Format : AVC
Format/Info : Advanced Video Codec
Format profile : High@L4.1
Format settings, CABAC : Yes
Format settings, ReFrames : 5 frames
Codec ID : V_MPEG4/ISO/AVC
Duration : 1h 58mn
Bit rate : 12.4 Mbps
Width : 1 920 pixels
Height : 800 pixels
Display aspect ratio : 2.40:1
Frame rate mode : Constant
Frame rate : 23.976 fps
Color space : YUV
Chroma subsampling : 4:2:0
Bit depth : 8 bits
Scan type : Progressive
Bits/(Pixel*Frame) : 0.336
Stream size : 10.2 GiB (85%)
Writing library : x264 core 144 r2525 40bb568
Encoding settings : cabac=1 / ref=5 / deblock=1:-3:-3 / analyse=0x3:0x133 / me=umh / subme=11 / psy=1 / psy_rd=1.00:0.00 / mixed_ref=1 / me_range=24 / chroma_me=1 / trellis=2 / 8x8dct=1 / cqm=0 / deadzone=21,11 / fast_pskip=0 / chroma_qp_offset=-2 / threads=36 / lookahead_threads=4 / sliced_threads=0 / nr=0 / decimate=0 / interlaced=0 / bluray_compat=0 / constrained_intra=0 / bframes=6 / b_pyramid=2 / b_adapt=2 / b_bias=0 / direct=3 / weightb=1 / open_gop=0 / weightp=2 / keyint=250 / keyint_min=24 / scenecut=40 / intra_refresh=0 / rc_lookahead=40 / rc=crf / mbtree=1 / crf=16.5 / qcomp=0.60 / qpmin=0 / qpmax=69 / qpstep=4 / ip_ratio=1.40 / aq=2:0.80
Language : English
Default : Yes
Forced : No
DURATION : 01:58:05.245000000
NUMBER_OF_FRAMES : 169876
NUMBER_OF_BYTES : 11199876853
_STATISTICS_WRITING_APP : mkvmerge v7.3.0 ('Nouages') 64bit built on Oct 22 2014 18:53:34
_STATISTICS_WRITING_DATE_UTC : 2015-02-01 10:54:23
_STATISTICS_TAGS : BPS DURATION NUMBER_OF_FRAMES NUMBER_OF_BYTES
Audio #1
ID : 2
Format : AC-3
Format/Info : Audio Coding 3
Mode extension : CM (complete main)
Format settings, Endianness : Big
Codec ID : A_AC3
Duration : 1h 58mn
Bit rate mode : Constant
Bit rate : 384 Kbps
Channel(s) : 6 channels
Channel positions : Front: L C R, Side: L R, LFE
Sampling rate : 48.0 KHz
Bit depth : 16 bits
Compression mode : Lossy
Stream size : 324 MiB (3%)
Language : Russian
Default : Yes
Forced : No
Audio #2
ID : 3
Format : DTS
Format/Info : Digital Theater Systems
Mode : 16
Format settings, Endianness : Big
Codec ID : A_DTS
Duration : 1h 58mn
Bit rate mode : Constant
Bit rate : 1 509 Kbps
Channel(s) : 6 channels
Channel positions : Front: L C R, Side: L R, LFE
Sampling rate : 48.0 KHz
Bit depth : 24 bits
Compression mode : Lossy
Stream size : 1.24 GiB (10%)
Language : English
Default : No
Forced : No

[Цитировать]



Показать сообщения:    

Текущее время: 08-Дек 23:09

Часовой пояс: UTC + 3


Вы не можете начинать темы
Вы не можете отвечать на сообщения
Вы не можете редактировать свои сообщения
Вы не можете удалять свои сообщения
Вы не можете голосовать в опросах
Вы не можете прикреплять файлы к сообщениям
Вы не можете скачивать файлы

!ВНИМАНИЕ!
Сайт не предоставляет электронные версии произведений, а занимается лишь коллекционированием и каталогизацией ссылок, присылаемых и публикуемых на форуме нашими читателями. Если вы являетесь правообладателем какого-либо представленного материала и не желаете, чтобы ссылка на него находилась в нашем каталоге, свяжитесь с нами, и мы незамедлительно удалим ее. Файлы для обмена на трекере предоставлены пользователями сайта, и администрация не несет ответственности за их содержание. Просьба не заливать файлы, защищенные авторскими правами, а также файлы нелегального содержания!