[ Сегодня идет свободное скачивание без начисления Download ]


Статистика раздачи
Нет
 
   
 
Top  
 
 
-Ральф / Wreck-It Ralph (2012) DVDScr«Хорошего друга должно быть много»- Русское название: Ральф
Оригинальное название: Wreck-It Ralph
Год выпуска: 2012
Производство: США / Walt Disney Animation Studios
Жанр: Мультфильм, Комедия, Приключения, Семейный
Перевод: Дублированный [звук с TS]
Субтитры: Отсутствуют
Дата мировой премьеры: 1 ноября 2012
Дата российской премьеры: 1 ноября 2012, «WDSSPR»
Дата выхода DVD релиза: 5 марта 2013, «Уолт Дисней Компани СНГ»
Дата выхода Blu-Ray релиза: 5 марта 2013, «Уолт Дисней Компани СНГ»
Режиссер: Рич Мур
Продюсер: Кларк Спенсер, Моника Лаго-Кэйтис, Джон Лассетер
Актеры: Джон Си Райли, Джек МакБрайер, Сара Силверман, Джейн Линч, Алан Тьюдик, Адам Каролла, Минди Калинг, Джо Ло Труглио, Эд О’Нил, Деннис Хейсбёрт
Описание фильма:
Ральф — второстепенный персонаж восьмибитовой компьютерной игры, и ему надоело находиться в тени главного героя, мастера на все руки Феликса, который всегда появляется, чтобы «исправить» ситуацию! После десяти лет добросовестной работы в роли злодея, в течение которых все похвалы выпадали на долю Феликса, Ральф больше не хочет быть плохим. Он решает отправиться в путешествие по аркадным играм разных жанров, чтобы доказать всем, что и он тоже может быть героем. На своем пути Ральф встречает героев разных игр — хладнокровную сержанта Калхун из игры Hero’s Duty, оберегающую планету от нашествия инопланетных захватчиков, и сладкую на вид, но острую на язычок Сластену фон Дю, чье существование в гоночном симуляторе Sugar Rush внезапно оказывается под угрозой. Наконец-то Ральфу выпадает шанс показать, что он умеет не только разрушать!

Продолжительность: 01:41:12
Качество видео: DVDScr
Видеокодек: Xvid
Битрейт видео: ~1999 Kbit/s
Размер кадра: 720 x 304
Аудиокодек: MP3, 2.0
Битрейт аудио: 128 Kbit/s

MediaInfo

Общее
Полное имя : D:\Торренты\Ральф.2012.DVDScr.avi
Формат : AVI
Формат/Информация : Audio Video Interleave
Размер файла : 1,51 Гбайт
Продолжительность : 1 ч. 41 м.
Общий поток : 2138 Кбит/сек
Программа кодирования : VirtualDubMod 1.5.10.2 (build 2540/release)
Библиотека кодирования : VirtualDubMod build 2540/release
Видео
Идентификатор : 0
Формат : MPEG-4 Visual
Профиль формата : Advanced Simple@L5
Параметр BVOP формата : 2
Параметр QPel формата : Нет
Параметр GMC формата : Без точки перехода
Параметр матрицы формата : Default (H.263)
Идентификатор кодека : XVID
Идентификатор кодека/Подсказка : XviD
Продолжительность : 1 ч. 41 м.
Битрейт : 1999 Кбит/сек
Ширина : 720 пикс.
Высота : 304 пикс.
Соотношение сторон : 2,35:1
Частота кадров : 29,970 кадр/сек
Цветовое пространство : YUV
Подвыборка цветности : 4:2:0
Битовая глубина : 8 бит
Тип развёртки : Прогрессивная
Метод сжатия : С потерями
Бит/(Пиксели*Кадры) : 0.305
Размер потока : 1,41 Гбайт (93%)
Библиотека кодирования : XviD 1.2.1 (UTC 2008-12-04)
Аудио
Идентификатор : 1
Формат : MPEG Audio
Версия формата : Version 1
Профиль формата : Layer 3
Идентификатор кодека : 55
Идентификатор кодека/Подсказка : MP3
Продолжительность : 1 ч. 41 м.
Вид битрейта : Постоянный
Битрейт : 128 Кбит/сек
Каналы : 2 канала
Частота : 44,1 КГц
Метод сжатия : С потерями
Размер потока : 92,7 Мбайт (6%)
Выравнивание : Разделение по промежуткам
Продолжительность промежутка : 33 мс. (1,00 видеокадр)
Время предзагрузки промежутка : 500 ms
Скриншоты:
Время раздачи: 24/7 по возможности

[Цитировать]



Показать сообщения:    

Текущее время: 10-Дек 11:52

Часовой пояс: UTC + 3


Вы не можете начинать темы
Вы не можете отвечать на сообщения
Вы не можете редактировать свои сообщения
Вы не можете удалять свои сообщения
Вы не можете голосовать в опросах
Вы не можете прикреплять файлы к сообщениям
Вы не можете скачивать файлы

!ВНИМАНИЕ!
Сайт не предоставляет электронные версии произведений, а занимается лишь коллекционированием и каталогизацией ссылок, присылаемых и публикуемых на форуме нашими читателями. Если вы являетесь правообладателем какого-либо представленного материала и не желаете, чтобы ссылка на него находилась в нашем каталоге, свяжитесь с нами, и мы незамедлительно удалим ее. Файлы для обмена на трекере предоставлены пользователями сайта, и администрация не несет ответственности за их содержание. Просьба не заливать файлы, защищенные авторскими правами, а также файлы нелегального содержания!