[ Сегодня идет свободное скачивание без начисления Download ]


Статистика раздачи
Скачал: [ 4 ]
 
   
 
Top  
 
 
Преследуемый / The Hunted
Производство: США / Bregman/Baer Productions, Davis Entertainment, Kirina Productions, Universal Pictures
Жанр: Боевик, Триллер, Драма
Режиссер: Дж.Ф. Лоутон
Актеры: Кристофер Ламберт, Джон Лоун, Джоан Чэнь, Ёсио Харада, Ёко Симада, Мари Нацуки, Так Кубота, Масуми Окада, Тацуя Ириэ, Майкл Уоррен
Описание:
Приехавший по делам фирмы в Японию нью-йоркский бизнесмен Поль Расин проводит романтическую ночь с очаровательной незнакомкой. Став случайным свидетелем ее убийства, он попадает в водоворот кровавых и загадочных событий, связанных с давней враждой между двумя древними и могущественными кланами ниндзя. И, став объектом преследования, Поль принимает бой…

Продолжительность: 01:50:15
Качество видео: BDRip-AVC
Перевод: Профессиональный (двухголосый, закадровый) x2, авторский (одноголосый, закадровый) x4
Видео: AVC/H.264, 1024x556, ~2877 Kbps
Аудио 1: AC3, 2 ch, 192 Kbps, 48.0 kHz - двухголосый (Премьер)
Аудио 2: AC3, 2 ch, 192 Kbps, 48.0 kHz - двухголосый
Аудио 3: AC3, 2 ch, 192 Kbps, 48.0 kHz - авторский А.Гаврилов
Аудио 4: AC3, 6 ch, 384 Kbps, 48.0 kHz - авторский Ю.Живов
Аудио 5: AC3, 6 ch, 384 Kbps, 48.0 kHz - авторский В.Горчаков

Mediainfo:

Формат : Matroska
Версия формата : Version 2
Размер файла : 3,25 Гбайт
Продолжительность : 1 ч. 50 м.
Общий поток : 4221 Кбит/сек
Дата кодирования : UTC 2016-10-15 08:27:22
Программа кодирования : mkvmerge v5.3.0 ('I could have danced') built on Feb 9 2012 10:38:07
Библиотека кодирования : libebml v1.2.3 + libmatroska v1.3.0
Attachment : Yes
Видео
Идентификатор : 1
Формат : AVC
Формат/Информация : Advanced Video Codec
Профиль формата : [email protected]
Параметр CABAC формата : Да
Параметр ReFrames формата : 11 кадров
Идентификатор кодека : V_MPEG4/ISO/AVC
Продолжительность : 1 ч. 50 м.
Битрейт : 2877 Кбит/сек
Ширина : 1024 пикселя
Высота : 556 пикселей
Соотношение сторон : 1,85:1
Режим частоты кадров : Постоянный
Частота кадров : 23,976 кадра/сек
Цветовое пространство : YUV
Субдискретизация насыщенности : 4:2:0
Битовая глубина : 8 бит
Тип развёртки : Прогрессивная
Бит/(Пиксели*Кадры) : 0.211
Размер потока : 2,15 Гбайт (66%)
Библиотека кодирования : x264 core 146 r2538 121396c
Настройки программы : cabac=1 / ref=11 / deblock=1:-2:-2 / analyse=0x3:0x133 / me=umh / subme=11 / psy=1 / psy_rd=1.05:0.10 / mixed_ref=1 / me_range=32 / chroma_me=1 / trellis=2 / 8x8dct=1 / cqm=0 / deadzone=21,11 / fast_pskip=0 / chroma_qp_offset=-3 / threads=12 / lookahead_threads=2 / sliced_threads=0 / nr=0 / decimate=0 / interlaced=0 / bluray_compat=0 / constrained_intra=0 / bframes=8 / b_pyramid=2 / b_adapt=2 / b_bias=0 / direct=3 / weightb=1 / open_gop=0 / weightp=2 / keyint=240 / keyint_min=23 / scenecut=40 / intra_refresh=0 / rc_lookahead=40 / rc=2pass / mbtree=0 / bitrate=2877 / ratetol=1.0 / qcomp=0.60 / qpmin=0 / qpmax=69 / qpstep=4 / cplxblur=20.0 / qblur=0.5 / vbv_maxrate=50000 / vbv_bufsize=62500 / nal_hrd=none / filler=0 / ip_ratio=1.40 / pb_ratio=1.30 / aq=1:0.90
Default : Да
Forced : Нет
Аудио #1
Идентификатор : 2
Формат : AC-3
Формат/Информация : Audio Coding 3
Расширение режима : CM (complete main)
Параметр Endianness формата : Big
Идентификатор кодека : A_AC3
Продолжительность : 1 ч. 50 м.
Вид битрейта : Постоянный
Битрейт : 192 Кбит/сек
Каналы : 2 канала
Расположение каналов : Front: L R
Частота : 48,0 КГц
Битовая глубина : 16 бит
Метод сжатия : С потерями
Размер потока : 151 Мбайт (5%)
Заголовок : Профессиональный двухголосый закадровы (Премьер)
Язык : Russian
Default : Да
Forced : Нет
Аудио #2
Идентификатор : 3
Формат : AC-3
Формат/Информация : Audio Coding 3
Расширение режима : CM (complete main)
Параметр Endianness формата : Big
Идентификатор кодека : A_AC3
Продолжительность : 1 ч. 50 м.
Вид битрейта : Постоянный
Битрейт : 192 Кбит/сек
Каналы : 2 канала
Расположение каналов : Front: L R
Частота : 48,0 КГц
Битовая глубина : 16 бит
Метод сжатия : С потерями
Размер потока : 151 Мбайт (5%)
Заголовок : Профессиональный двухголосый закадровый
Язык : Russian
Default : Нет
Forced : Нет
Аудио #3
Идентификатор : 4
Формат : AC-3
Формат/Информация : Audio Coding 3
Расширение режима : CM (complete main)
Параметр Endianness формата : Big
Идентификатор кодека : A_AC3
Продолжительность : 1 ч. 50 м.
Вид битрейта : Постоянный
Битрейт : 192 Кбит/сек
Каналы : 2 канала
Расположение каналов : Front: L R
Частота : 48,0 КГц
Битовая глубина : 16 бит
Метод сжатия : С потерями
Размер потока : 151 Мбайт (5%)
Заголовок : Авторский одноголосый закадровый (А.Гаврилов)
Язык : Russian
Default : Нет
Forced : Нет
Аудио #4
Идентификатор : 5
Формат : AC-3
Формат/Информация : Audio Coding 3
Расширение режима : CM (complete main)
Параметр Endianness формата : Big
Идентификатор кодека : A_AC3
Продолжительность : 1 ч. 50 м.
Вид битрейта : Постоянный
Битрейт : 384 Кбит/сек
Каналы : 6 каналов
Расположение каналов : Front: L C R, Side: L R, LFE
Частота : 48,0 КГц
Битовая глубина : 16 бит
Метод сжатия : С потерями
Размер потока : 303 Мбайт (9%)
Заголовок : Авторский одноголосый закадровый (В.Горчаков)
Язык : Russian
Default : Нет
Forced : Нет
Аудио #5
Идентификатор : 6
Формат : AC-3
Формат/Информация : Audio Coding 3
Расширение режима : CM (complete main)
Параметр Endianness формата : Big
Идентификатор кодека : A_AC3
Продолжительность : 1 ч. 50 м.
Вид битрейта : Постоянный
Битрейт : 384 Кбит/сек
Каналы : 6 каналов
Расположение каналов : Front: L C R, Side: L R, LFE
Частота : 48,0 КГц
Битовая глубина : 16 бит
Метод сжатия : С потерями
Размер потока : 303 Мбайт (9%)
Заголовок : Авторский одноголосый закадровый (Ю.Живов)
Язык : Russian
Default : Нет
Forced : Нет
Меню
00:00:00.000 : en:
00:12:05.932 : en:
00:19:06.603 : en:
00:25:44.960 : en:
00:31:28.428 : en:
00:38:51.244 : en:
00:45:47.744 : en:
00:53:14.315 : en:
01:01:58.005 : en:
01:07:29.170 : en:
01:11:45.841 : en:
01:15:21.890 : en:
01:23:49.481 : en:
01:31:19.849 : en:
01:37:24.630 : en:
01:45:40.375 : en:
01:50:14.608 : en:

Скриншоты

[Цитировать]



Показать сообщения:    

Текущее время: 05-Дек 13:37

Часовой пояс: UTC + 3


Вы не можете начинать темы
Вы не можете отвечать на сообщения
Вы не можете редактировать свои сообщения
Вы не можете удалять свои сообщения
Вы не можете голосовать в опросах
Вы не можете прикреплять файлы к сообщениям
Вы не можете скачивать файлы

!ВНИМАНИЕ!
Сайт не предоставляет электронные версии произведений, а занимается лишь коллекционированием и каталогизацией ссылок, присылаемых и публикуемых на форуме нашими читателями. Если вы являетесь правообладателем какого-либо представленного материала и не желаете, чтобы ссылка на него находилась в нашем каталоге, свяжитесь с нами, и мы незамедлительно удалим ее. Файлы для обмена на трекере предоставлены пользователями сайта, и администрация не несет ответственности за их содержание. Просьба не заливать файлы, защищенные авторскими правами, а также файлы нелегального содержания!