[ Сегодня идет свободное скачивание без начисления Download ]


Статистика раздачи
Нет
 
   
 
Top  
 
 
-Смертельная битва / Mortal Kombat (1995) HDRip- Русское название: Смертельная битва
Оригинальное название: Mortal Kombat
Год выпуска: 1995
Жанр: Боевик, Приключения, Фэнтези
Описание фильма:
Несколько столетий назад Шанг Тсунг — маг из потустороннего мира захватил в свои руки древний воинский турнир. Его цель — ввергнуть наш мир в хаос. Чтобы спасти человечество от гибели, троим воинам предстоит битва… смертельная битва с силами мрака.
Режиссер: Пол У. С. Андерсон / Paul W.S. Anderson
Актеры: Кристофер Ламберт, Робин Шоу, Линден Эшби, Кэри-Хироюки Тагава, Бриджит Уилсон, Талиса Сото, Тревор Годдар, Крис Касамасса, Франсуа Пети, Кит Кук
Продолжительность: 01:41:21
Перевод: Многоголосый закадровый,профессиональный

Дата мировой премьеры: 13 июля 1995
Дата выхода DVD релиза: 23 октября 2008, «CP-Digital»
Видеокодек: Xvid
Битрейт видео: ~2176 kb/s
Размер кадра: 720x400
Качество видео: HDRip
Аудио 1: Русский, AC3 Dolby Digital, 2 ch, 192 kb/s
Аудио 2: Английский, AC3 Dolby Digital, 6 ch, ~448.00 kb/s

MI

Общее
Полное имя : D:\My Video\Смертельная битва дилогия Mortal Kombat dilogy (1995-1997) HDRip\Смертельная битва Mortal Kombat (1995) HDRip.avi
Формат : AVI
Формат/Информация : Audio Video Interleave
Профиль формата : OpenDML
Размер файла : 2,01 Гбайт
Продолжительность : 1 ч. 41 м.
Общий поток : 2834 Кбит/сек
Программа кодирования : VirtualDubMod 1.5.4.1 (build 2066/release)
Библиотека кодирования : VirtualDubMod build 2066/release
Видео
Идентификатор : 0
Формат : MPEG-4 Visual
Профиль формата : Advanced Simple@L5
Параметр BVOP формата : 2
Параметр QPel формата : Нет
Параметр GMC формата : Без точки перехода
Параметр матрицы формата : Выборочная
Режим смешивания : Сжатый битовый поток
Идентификатор кодека : XVID
Идентификатор кодека/Подсказка : XviD
Продолжительность : 1 ч. 41 м.
Битрейт : 2176 Кбит/сек
Ширина : 720 пикселей
Высота : 400 пикселей
Соотношение сторон : 16:9
Частота кадров : 23,976 кадра/сек
Цветовое пространство : YUV
Субдискретизация насыщенности : 4:2:0
Битовая глубина : 8 бит
Тип развёртки : Прогрессивная
Метод сжатия : С потерями
Бит/(Пиксели*Кадры) : 0.315
Размер потока : 1,54 Гбайт (77%)
Библиотека кодирования : XviD 1.2.1 (UTC 2008-12-04)
Аудио #1
Идентификатор : 1
Формат : AC-3
Формат/Информация : Audio Coding 3
Расширение режима : CM (complete main)
Параметр Endianness формата : Big
Идентификатор кодека : 2000
Продолжительность : 1 ч. 41 м.
Вид битрейта : Постоянный
Битрейт : 192 Кбит/сек
Каналы : 2 канала
Расположение каналов : Front: L R
Частота : 48,0 КГц
Битовая глубина : 16 бит
Метод сжатия : С потерями
Размер потока : 139 Мбайт (7%)
Выравнивание : Разделение по промежуткам
Продолжительность промежутка : 42 мс. (1,00 видеокадр)
Время предзагрузки промежутка : 500 мс.
Аудио #2
Идентификатор : 2
Формат : AC-3
Формат/Информация : Audio Coding 3
Расширение режима : CM (complete main)
Параметр Endianness формата : Big
Идентификатор кодека : 2000
Продолжительность : 1 ч. 41 м.
Вид битрейта : Постоянный
Битрейт : 448 Кбит/сек
Каналы : 6 каналов
Расположение каналов : Front: L C R, Side: L R, LFE
Частота : 48,0 КГц
Битовая глубина : 16 бит
Метод сжатия : С потерями
Размер потока : 325 Мбайт (16%)
Выравнивание : Разделение по промежуткам
Продолжительность промежутка : 42 мс. (1,00 видеокадр)
Время предзагрузки промежутка : 500 мс.
Скриншоты
Смертельная Битва 2: Истребление / Mortal Kombat 2: Annihilation (1997) HDRip- Русское название: Смертельная Битва 2: Истребление
Оригинальное название: Mortal Kombat 2: Annihilation
Год выпуска: 1997
Жанр: Боевик, Приключения, Фэнтези
Описание фильма:
Император Внеземелья Шао Кан прибывает на Землю, чтобы лично предупредить ее жителей о своих намерениях: уничтожить мир земной, и сделать все это за семь библейских дней. В числе его подручных — роботы, обладающие инстинктами и приемами ниндзя, четырехрукая дева Шива и звероподобный человек Мотарро. Но им противостоят герои Земли во главе с самим лордом Рейденом… Ожидается фейерверк единоборств!..
Режиссер: Джон Р. Леонетти / John Leonetti
Актеры: Джеймс Ремар, Робин Шоу, Талиса Сото, Сандра Хесс, Брайан Томпсон, Линн «Красный» Уильямс, Рейнер Шёне, Дерон Макби, Музетта Вандер, Марджин Холден
Продолжительность: 01:34:41
Перевод: Многоголосый закадровый,профессиональный

Дата мировой премьеры: 21 ноября 1997
Дата выхода DVD релиза: 21 августа 2008, «CP-Digital»
Видеокодек: Xvid
Битрейт видео: ~1748 kb/s
Размер кадра: 720x384
Качество видео: HDRip
Аудиокодек: AC3 5.1 (surround), 6 ch
Битрейт аудио: 448 kb/s

MI

Общее
Полное имя : D:\My Video\Смертельная битва дилогия Mortal Kombat dilogy (1995-1997) HDRip\Mortal.Kombat.02.1997.avi
Формат : AVI
Формат/Информация : Audio Video Interleave
Размер файла : 1,46 Гбайт
Продолжительность : 1 ч. 34 м.
Общий поток : 2205 Кбит/сек
Режиссёр : zim2001
Программа кодирования : VirtualDubMod 1.5.10.2 (build 2540/release)
Видео
Идентификатор : 0
Формат : MPEG-4 Visual
Профиль формата : Advanced Simple@L5
Параметр BVOP формата : 1
Параметр QPel формата : Нет
Параметр GMC формата : Без точки перехода
Параметр матрицы формата : Выборочная
Идентификатор кодека : XVID
Идентификатор кодека/Подсказка : XviD
Продолжительность : 1 ч. 34 м.
Битрейт : 1748 Кбит/сек
Ширина : 720 пикселей
Высота : 384 пикселя
Соотношение сторон : 1,875
Частота кадров : 23,976 кадра/сек
Цветовое пространство : YUV
Субдискретизация насыщенности : 4:2:0
Битовая глубина : 8 бит
Тип развёртки : Прогрессивная
Метод сжатия : С потерями
Бит/(Пиксели*Кадры) : 0.264
Размер потока : 1,16 Гбайт (79%)
Библиотека кодирования : XviD 1.2.1 (UTC 2008-12-04)
Аудио
Идентификатор : 1
Формат : AC-3
Формат/Информация : Audio Coding 3
Расширение режима : CM (complete main)
Параметр Endianness формата : Big
Идентификатор кодека : 2000
Продолжительность : 1 ч. 34 м.
Вид битрейта : Постоянный
Битрейт : 448 Кбит/сек
Каналы : 6 каналов
Расположение каналов : Front: L C R, Side: L R, LFE
Частота : 48,0 КГц
Битовая глубина : 16 бит
Метод сжатия : С потерями
Размер потока : 303 Мбайт (20%)
Выравнивание : Разделение по промежуткам
Продолжительность промежутка : 42 мс. (1,00 видеокадр)
Время предзагрузки промежутка : 500 мс.
Скриншоты

Время раздачи: До первых пяти скачавших 7/24...

[Цитировать]



Показать сообщения:    

Текущее время: 10-Дек 21:33

Часовой пояс: UTC + 3


Вы не можете начинать темы
Вы не можете отвечать на сообщения
Вы не можете редактировать свои сообщения
Вы не можете удалять свои сообщения
Вы не можете голосовать в опросах
Вы не можете прикреплять файлы к сообщениям
Вы не можете скачивать файлы

!ВНИМАНИЕ!
Сайт не предоставляет электронные версии произведений, а занимается лишь коллекционированием и каталогизацией ссылок, присылаемых и публикуемых на форуме нашими читателями. Если вы являетесь правообладателем какого-либо представленного материала и не желаете, чтобы ссылка на него находилась в нашем каталоге, свяжитесь с нами, и мы незамедлительно удалим ее. Файлы для обмена на трекере предоставлены пользователями сайта, и администрация не несет ответственности за их содержание. Просьба не заливать файлы, защищенные авторскими правами, а также файлы нелегального содержания!