[ Сегодня идет свободное скачивание без начисления Download ]


Статистика раздачи
Нет
 
   
 
Top  
 
 
Сиеста / Siesta Информация о фильме
Название: Сиеста
Оригинальное название: Siesta
Год выхода: 1987
Жанр: Триллер, драма, детектив
Режиссер: Мэри Ламберт
В ролях: Эллен Баркин, Габриэль Бирн, Джоди Фостер, Джулиан Сэндз, Изабелла Росселини, Мартин Шин, Грейс Джонс, Гари Кэди, Даниель Мартин, Франк Бранья, Фабиан Конде, Хосе Мария Каньете, Джейм Дория, Хосе Лопез
О фильме: По роману Патрис Чаплин. Фильм сделан в стиле «параллельного воспоминания» с постоянными переходами из одного временного плана в другой. Клэр, каскадер по профессии, накануне ответственного выступления внезапно уезжает в Испанию, чтобы встретиться со своим бывшим учителем и любовником. В Испании она узнаёт, что он собирается жениться и считает, что их прошлые отношения закончены. Однако, Клэр, раздираемая противоречивыми чувствами, пытается возродить былую любовь. И вновь вспыхнувшее чувство увлекает обоих, но как и следовало ожидать, заканчивается трагедией.

Страна: США
Продолжительность: 01:32:51
Перевод: Профессиональный (многоголосый, закадровый) (студия «Амальгама» по заказу компании «DVD Group»)
Субтитры: Нет
Семпл
Файл
Кодек: XviD
Качество: DVDRip
Видео: 640x480 (1.33:1), 25 fps, XviD build 73 ~982 kbps avg, 0.13 bit/pixel
Звук: 48 kHz, MPEG Layer 3, 2 ch, ~128.00 kbps avg

MediaInfo

General
Complete name : SIESTA.1987.DVDRip.ot.Portablius.avi
Format : AVI
Format/Info : Audio Video Interleave
File size : 744 MiB
Duration : 1 h 32 min
Overall bit rate : 1 120 kb/s
Writing application : VirtualDubMod 1.5.10.3 | www.virtualdub-fr.org || (build 2550/release)
Writing library : VirtualDubMod build 2550/release
Video
ID : 0
Format : MPEG-4 Visual
Format profile : Advanced Simple@L5
Format settings, BVOP : 1
Format settings, QPel : No
Format settings, GMC : No warppoints
Format settings, Matrix : Custom
Codec ID : XVID
Codec ID/Hint : XviD
Duration : 1 h 32 min
Bit rate : 983 kb/s
Width : 640 pixels
Height : 480 pixels
Display aspect ratio : 4:3
Frame rate : 25.000 FPS
Color space : YUV
Chroma subsampling : 4:2:0
Bit depth : 8 bits
Scan type : Progressive
Compression mode : Lossy
Bits/(Pixel*Frame) : 0.128
Stream size : 653 MiB (88%)
Writing library : XviD 73
Audio
ID : 1
Format : MPEG Audio
Format version : Version 1
Format profile : Layer 3
Codec ID : 55
Codec ID/Hint : MP3
Duration : 1 h 32 min
Bit rate mode : Constant
Bit rate : 128 kb/s
Channel(s) : 2 channels
Sampling rate : 48.0 kHz
Compression mode : Lossy
Stream size : 85.0 MiB (11%)
Alignment : Aligned on interleaves
Interleave, duration : 40 ms (1.00 video frame)
Interleave, preload duratio : 504 ms
Writing library : LAME3.99r
Encoding settings : -m s -V 4 -q 2 -lowpass 17 -b 128

Скриншоты

[Цитировать]



Показать сообщения:    

Текущее время: 26-Июн 13:14

Часовой пояс: UTC + 6


Вы не можете начинать темы
Вы не можете отвечать на сообщения
Вы не можете редактировать свои сообщения
Вы не можете удалять свои сообщения
Вы не можете голосовать в опросах
Вы не можете прикреплять файлы к сообщениям
Вы не можете скачивать файлы

!ВНИМАНИЕ!
Сайт не предоставляет электронные версии произведений, а занимается лишь коллекционированием и каталогизацией ссылок, присылаемых и публикуемых на форуме нашими читателями. Если вы являетесь правообладателем какого-либо представленного материала и не желаете, чтобы ссылка на него находилась в нашем каталоге, свяжитесь с нами, и мы незамедлительно удалим ее. Файлы для обмена на трекере предоставлены пользователями сайта, и администрация не несет ответственности за их содержание. Просьба не заливать файлы, защищенные авторскими правами, а также файлы нелегального содержания!