[ Сегодня идет свободное скачивание без начисления Download ]


Статистика раздачи
Нет
 
   
 
Top  
 
 
-Война Богов: Бессмертные / Immortals (2011) BDRip- Русское название: Война Богов: Бессмертные
Оригинальное название: Immortals
Год выпуска: 2011
Жанр: Фэнтези, Боевик, Драма
Описание фильма:
Одержимый жаждой власти царь Гиперион хочет уничтожить род людской и низвергнуть богов. С помощью Эпирского Лука, сделанного руками бога войны Ареса, он освобождает Титанов от тысячелетнего заточения в горах Тартара. Боги бессильны противостоять безумному царю. Единственная надежда на спасение — герой Тесей, который вступает в неравную войну с Титанами. Боги Олимпа во главе с самим Зевсом, пророчица Федра и хитрый раб Ставрос помогают герою в смертельной битве с демонами. Тесей должен победить, или боги Олимпа будут низвержены, а Эллада обречена на погибель…
Режиссер: Тарсем Синх
Актеры: Генри Кавилл, Стивен Дорфф, Люк Эванс, Изабель Лукас, Келлан Латс, Фрида Пинто, Микки Рурк, Джон Хёрт, Джозеф Морган, Энн Дэй-Джонс
Продолжительность: 01:50:27
Перевод: Дублированный
Язык субтитров: Арабский, Болгарский, Датский, Английский, Финский, Французский, Греческий, Польский, Португальский, Португальский (Бразилия), Румынский, Русский, Сербский, Словенский, Испанский, Шведский, Турецкий, Вьетнамский
Вид субтитров: Отдельным файлом

Дата мировой премьеры: 10 ноября 2011
Дата российской премьеры: 10 ноября 2011, «Парадиз», «Наше Кино»
Дата выхода DVD релиза: 19 января 2012, «CP-Digital»-Видеокодек: MPEG-4 AVC/H.264
Битрейт видео: ~16,2 Mbps
Размер кадра: 1920 х 1080
Качество видео: BDRip 3D
Аудиокодек: DTS
Аудио 1: Русский, DTS 5.1, 1510 kbps, 48 kHz
Аудио 2: Английский, DTS 5.1, 1510 kbps, 48 kHz-Сэмпл: Ссылка-

MediaInfo:

Общее
Уникальный идентификатор : 229282849637752801820661871287412033139 (0xAC7E454511FC1A25B3B709C814298673)
Полное имя : Immortals.3D.2011.1080p.Half.BDRip\Immortals.3D.2011.1080p.BDRip.Half.OU.mkv
Формат : Matroska
Версия формата : Version 2
Размер файла : 14,8 Гбайт
Продолжительность : 1 ч. 50 м.
Общий поток : 19,2 Мбит/сек
Дата кодирования : UTC 2012-02-28 13:59:33
Программа кодирования : mkvmerge v5.2.0 ('I can't explain') built on Dec 18 2011 18:12:03
Библиотека кодирования : libebml v1.2.3 + libmatroska v1.3.0
Видео
Идентификатор : 1
Формат : AVC
Формат/Информация : Advanced Video Codec
Профиль формата : High@L4.1
Параметр CABAC формата : Да
Параметр ReFrames формата : 4 кадра
Идентификатор кодека : V_MPEG4/ISO/AVC
Продолжительность : 1 ч. 50 м.
Битрейт : 16,2 Мбит/сек
Ширина : 1920 пикселей
Высота : 1080 пикселей
Соотношение сторон : 16:9
Частота кадров : 23,976 кадра/сек
Цветовое пространство : YUV
Субдискретизация насыщенности : 4:2:0
Битовая глубина : 8 бит
Тип развёртки : Прогрессивная
Бит/(Пиксели*Кадры) : 0.326
Размер потока : 12,2 Гбайт (82%)
Библиотека кодирования : x264 core 120 r2164 da19765
Настройки программы : cabac=1 / ref=4 / deblock=1:-3:-3 / analyse=0x3:0x113 / me=tesa / subme=11 / psy=1 / psy_rd=0.80:0.00 / mixed_ref=1 / me_range=48 / chroma_me=1 / trellis=2 / 8x8dct=1 / cqm=0 / deadzone=21,11 / fast_pskip=0 / chroma_qp_offset=-2 / threads=12 / sliced_threads=0 / nr=0 / decimate=0 / interlaced=0 / bluray_compat=0 / constrained_intra=0 / bframes=7 / b_pyramid=2 / b_adapt=2 / b_bias=0 / direct=3 / weightb=1 / open_gop=0 / weightp=2 / keyint=250 / keyint_min=23 / scenecut=40 / intra_refresh=0 / rc_lookahead=120 / rc=2pass / mbtree=1 / bitrate=16200 / ratetol=1.0 / qcomp=0.70 / qpmin=0 / qpmax=69 / qpstep=4 / cplxblur=20.0 / qblur=0.5 / ip_ratio=1.40 / aq=2:0.60 / zones=146741,158883,b=0.4
Язык : English
Default : Да
Forced : Нет
Аудио #1
Идентификатор : 2
Формат : DTS
Формат/Информация : Digital Theater Systems
Идентификатор кодека : A_DTS
Продолжительность : 1 ч. 50 м.
Вид битрейта : Постоянный
Битрейт : 1510 Кбит/сек
Каналы : 6 каналов
Расположение каналов : Front: L C R, Side: L R, LFE
Частота : 48,0 КГц
Битовая глубина : 24 бит
Метод сжатия : С потерями
Размер потока : 1,16 Гбайт (8%)
Язык : Russian
Default : Да
Forced : Нет
Аудио #2
Идентификатор : 3
Формат : DTS
Формат/Информация : Digital Theater Systems
Идентификатор кодека : A_DTS
Продолжительность : 1 ч. 50 м.
Вид битрейта : Постоянный
Битрейт : 1510 Кбит/сек
Каналы : 6 каналов
Расположение каналов : Front: L C R, Side: L R, LFE
Частота : 48,0 КГц
Битовая глубина : 24 бит
Метод сжатия : С потерями
Размер потока : 1,16 Гбайт (8%)
Язык : English
Default : Нет
Forced : Нет
Меню
00:00:00.000 : en:00:00:00.000
00:03:02.516 : en:00:03:02.516
00:06:53.580 : en:00:06:53.580
00:11:02.328 : en:00:11:02.328
00:15:26.342 : en:00:15:26.342
00:19:13.444 : en:00:19:13.444
00:23:16.186 : en:00:23:16.186
00:26:21.121 : en:00:26:21.121
00:30:00.424 : en:00:30:00.424
00:33:42.729 : en:00:33:42.729
00:37:49.809 : en:00:37:49.809
00:42:09.235 : en:00:42:09.235
00:45:57.088 : en:00:45:57.088
00:53:58.735 : en:00:53:58.735
00:57:41.333 : en:00:57:41.333
01:01:39.654 : en:01:01:39.654
01:04:53.681 : en:01:04:53.681
01:09:38.216 : en:01:09:38.216
01:16:19.325 : en:01:16:19.325
01:23:25.709 : en:01:23:25.709
01:27:41.631 : en:01:27:41.631
01:31:35.699 : en:01:31:35.699
01:38:12.929 : en:01:38:12.929
01:41:55.943 : en:01:41:55.943
-Скриншоты: -Навигация по главам есть

[Цитировать]



Показать сообщения:    

Текущее время: 11-Дек 07:19

Часовой пояс: UTC + 3


Вы не можете начинать темы
Вы не можете отвечать на сообщения
Вы не можете редактировать свои сообщения
Вы не можете удалять свои сообщения
Вы не можете голосовать в опросах
Вы не можете прикреплять файлы к сообщениям
Вы не можете скачивать файлы

!ВНИМАНИЕ!
Сайт не предоставляет электронные версии произведений, а занимается лишь коллекционированием и каталогизацией ссылок, присылаемых и публикуемых на форуме нашими читателями. Если вы являетесь правообладателем какого-либо представленного материала и не желаете, чтобы ссылка на него находилась в нашем каталоге, свяжитесь с нами, и мы незамедлительно удалим ее. Файлы для обмена на трекере предоставлены пользователями сайта, и администрация не несет ответственности за их содержание. Просьба не заливать файлы, защищенные авторскими правами, а также файлы нелегального содержания!