[ Сегодня идет свободное скачивание без начисления Download ]


Статистика раздачи
Нет
 
   
 
Top  
 
 
-Корпорация монстров / Monsters, Inc. (2001) BDRip- Русское название: Корпорация монстров
Оригинальное название: Monsters, Inc.
Год выпуска: 2001
Жанр: Мультфильм, Фэнтези, Комедия, Приключения, Семейный
Описание:
Склизский гад в сливном бачке, мохнатый зверь, похожий на чудовище из «Аленького цветочка», гигантские мокрицы под кроватью — все они существуют на самом деле. Все, что им нужно — пугать детей, потому что из детских криков они получают электричество.
Полнометражный мультфильм рассказывает о кризисах в мире монстров, их жизни. Но однажды вся мирная жизнь монстров оказывается под угрозой: в их мир попадает ребенок. А с детьми столько хлопот, что они могут довести даже монстров.-[kp]458[/kp] [imdb]tt0198781[/imdb]-Режиссер: Пит Доктер, Дэвид Силверман, Ли Анкрич
Персонажи: Джон Гудмен, Билли Кристал, Мэри Гиббс, Стив Бушеми, Джеймс Коберн, Дженнифер Тилли, Боб Питерсон, Джон Ратценбергер, Фрэнк Оз, Дэниэл Джерсон
Роли дубдировали: Сергей Паршин, Олег Куликович, Лидия Семёнова, Евгений Дятлов, Борис Улитин
Продолжительность: 01:32:03
Перевод: Дублированный-Дата мировой премьеры: 28 октября 2001
Дата российской премьеры: 21 марта 2002, «Каскад»
Дата российского ре-релиза: 17 января 2013, «WDSSPR»
Дата выхода DVD релиза: 24 мая 2011, «Уолт Дисней Компани СНГ»
Дата выхода BLU-RAY релиза: 22 октября 2009, «Уолт Дисней Компани СНГ»-Видеокодек: MPEG-4 AVC/H.264
Битрейт видео: ~11,3 Мбит/сек
Размер кадра: 1920x1080
Качество видео: BDRip / За исходник спасибо:
Аудио №1: AC3 5.1 640 kbps - Русский
Аудио №2: AC3 5.1 640 kbps - Английский-

Media info:

Общее
Уникальный идентификатор : 189070177821693206532248207267045624806 (0x8E3D977A070A0DE58BBF26DDDC7CCBE6)
Полное имя : H:\my films\MONST_INC_3D.mkv
Формат : Matroska
Версия формата : Version 4 / Version 2
Размер файла : 8,23 Гбайт
Продолжительность : 1 ч. 32 м.
Общий поток : 12,8 Мбит/сек
Название фильма : MONST_INC_3D_crop_over/under
Дата кодирования : UTC 2013-02-07 23:32:56
Программа кодирования : mkvmerge v6.0.0 ('Coming Up For Air') built on Jan 20 2013 09:52:00
Библиотека кодирования : libebml v1.3.0 + libmatroska v1.4.0
Видео
Идентификатор : 1
Формат : AVC
Формат/Информация : Advanced Video Codec
Профиль формата : High@L4.1
Параметр CABAC формата : Да
Параметр ReFrames формата : 4 кадра
Параметр GOP формата : M=5, N=12
Идентификатор кодека : V_MPEG4/ISO/AVC
Продолжительность : 1 ч. 32 м.
Битрейт : 11,3 Мбит/сек
Ширина : 1920 пикселей
Высота : 1080 пикселей
Соотношение сторон : 16:9
Режим частоты кадров : Постоянный
Частота кадров : 23,976 кадра/сек
Цветовое пространство : YUV
Субдискретизация насыщенности : 4:2:0
Битовая глубина : 8 бит
Тип развёртки : Прогрессивная
Бит/(Пиксели*Кадры) : 0.226
Размер потока : 7,24 Гбайт (88%)
Заголовок : rip by I/N
Библиотека кодирования : x264 core 128 r2216M 198a7ea
Настройки программы : cabac=1 / ref=4 / deblock=1:-3:-3 / analyse=0x3:0x133 / me=umh / subme=7 / psy=1 / psy_rd=1.00:0.10 / mixed_ref=1 / me_range=32 / chroma_me=1 / trellis=2 / 8x8dct=1 / cqm=1 / deadzone=21,11 / fast_pskip=1 / chroma_qp_offset=-3 / threads=4 / lookahead_threads=1 / sliced_threads=0 / nr=0 / decimate=1 / interlaced=0 / bluray_compat=0 / constrained_intra=0 / bframes=4 / b_pyramid=2 / b_adapt=2 / b_bias=0 / direct=2 / weightb=1 / open_gop=0 / weightp=2 / keyint=12 / keyint_min=2 / scenecut=60 / intra_refresh=0 / rc_lookahead=17 / rc=crf / mbtree=1 / crf=18.0 / qcomp=0.60 / qpmin=10 / qpmax=60 / qpstep=4 / vbv_maxrate=40000 / vbv_bufsize=30000 / crf_max=30.0 / nal_hrd=none / ip_ratio=1.40 / aq=1:0.70
Default : Да
Forced : Нет
Аудио #1
Идентификатор : 2
Формат : AC-3
Формат/Информация : Audio Coding 3
Расширение режима : CM (complete main)
Параметр Endianness формата : Big
Идентификатор кодека : A_AC3
Продолжительность : 1 ч. 32 м.
Вид битрейта : Постоянный
Битрейт : 640 Кбит/сек
Каналы : 6 каналов
Расположение каналов : Front: L C R, Side: L R, LFE
Частота : 48,0 КГц
Битовая глубина : 16 бит
Метод сжатия : С потерями
Размер потока : 421 Мбайт (5%)
Язык : Russian
Default : Да
Forced : Нет
Аудио #2
Идентификатор : 3
Формат : AC-3
Формат/Информация : Audio Coding 3
Расширение режима : CM (complete main)
Параметр Endianness формата : Big
Идентификатор кодека : A_AC3
Продолжительность : 1 ч. 32 м.
Вид битрейта : Постоянный
Битрейт : 640 Кбит/сек
Каналы : 6 каналов
Расположение каналов : Front: L C R, Side: L R, LFE
Частота : 48,0 КГц
Битовая глубина : 16 бит
Метод сжатия : С потерями
Размер потока : 421 Мбайт (5%)
Язык : English
Default : Нет
Forced : Нет
Меню
00:00:00.000 : en:(01)00:00:00:000
00:01:33.176 : en:(02)00:01:33:176
00:03:07.770 : en:(03)00:03:07:770
00:04:51.416 : en:(04)00:04:51:416
00:07:17.353 : en:(05)00:07:17:353
00:09:12.051 : en:(06)00:09:12:051
00:10:44.226 : en:(07)00:10:44:226
00:11:54.505 : en:(08)00:11:54:505
00:17:26.837 : en:(09)00:17:26:837
00:20:07.289 : en:(10)00:20:07:289
00:22:05.115 : en:(11)00:22:05:115
00:25:49.965 : en:(12)00:25:49:965
00:28:36.673 : en:(13)00:28:36:673
00:31:08.366 : en:(14)00:31:08:366
00:34:52.048 : en:(15)00:34:52:048
00:36:57.840 : en:(16)00:36:57:840
00:38:52.621 : en:(17)00:38:52:621
00:40:30.302 : en:(18)00:40:30:302
00:43:36.905 : en:(19)00:43:36:905
00:45:32.438 : en:(20)00:45:32:438
00:48:10.304 : en:(21)00:48:10:304
00:50:40.203 : en:(22)00:50:40:203
00:54:44.572 : en:(23)00:54:44:572
00:57:32.907 : en:(24)00:57:32:907
01:03:45.863 : en:(25)01:03:45:863
01:06:29.026 : en:(26)01:06:29:026
01:07:30.421 : en:(27)01:07:30:421
01:13:56.557 : en:(28)01:13:56:557
01:17:54.252 : en:(29)01:17:54:252
01:21:29.801 : en:(30)01:21:29:801
01:24:13.006 : en:(31)01:24:13:006
01:25:11.314 : en:(32)01:25:11:314
Проверено на встроенном плейере ТВ Samsung-D6500Скриншоты:

Особенности релиза:

Справа и слева у видеоряда обрезано по 39р, что дает возможность просмотра на полный экран (без черных полос) на телевизорах с соотношением сторон 16:9 без изменения пропорций. На мой взгляд плюсы данных рипов- это более глубокое восприятие 3D-эффектов (конечно там где они есть) К минусам отнесу- вынужденное обрезание кадра по бокам. Так-что господа- выбор за вами! Всем приятного просмотра

[Цитировать]



Показать сообщения:    

Текущее время: 07-Дек 19:30

Часовой пояс: UTC + 3


Вы не можете начинать темы
Вы не можете отвечать на сообщения
Вы не можете редактировать свои сообщения
Вы не можете удалять свои сообщения
Вы не можете голосовать в опросах
Вы не можете прикреплять файлы к сообщениям
Вы не можете скачивать файлы

!ВНИМАНИЕ!
Сайт не предоставляет электронные версии произведений, а занимается лишь коллекционированием и каталогизацией ссылок, присылаемых и публикуемых на форуме нашими читателями. Если вы являетесь правообладателем какого-либо представленного материала и не желаете, чтобы ссылка на него находилась в нашем каталоге, свяжитесь с нами, и мы незамедлительно удалим ее. Файлы для обмена на трекере предоставлены пользователями сайта, и администрация не несет ответственности за их содержание. Просьба не заливать файлы, защищенные авторскими правами, а также файлы нелегального содержания!