[ Сегодня идет свободное скачивание без начисления Download ]


Статистика раздачи
Скачал: [ 3 ]
 
   
 
Top  
 
 
Опасная природа / Nature's Grave Информация о фильме
Название: Опасная природа
Оригинальное название: Nature's Grave / Long Weekend
Год выхода: 2008
Жанр: триллер, драма
Режиссер: Джэми Блэнкс
В ролях: Джеймс Кэвизел, Клаудия Карван, Стар, Джон Брамптон, Роджер Уорд, Лара Робинсон, Гордон Уадделл, Джуд Бомонт, Гари МакМиллан, Эверетт Де Рош
О фильме: Чтобы наладить и оживить свои отношения двое супругов решают устроить романтическую поездку и провести выходные на природе. Для своего отдыха они выбирают тихое и заповедное местечко на берегу моря. Природа здесь настолько дика и первобытна, что, казалось, здесь еще никогда не ступала нога человека. Однако их неуклюжее поведение и невнимательность причиняет немало вреда окружающему живому миру. Но всякому терпению приходит конец. Вскоре они смогут почувствовать на себе, что природа может ответить на это вторжение и этот ответ будет предельно жестоким. После проведенной ночи перед ними встает вопрос: смогут ли они вообще выбраться из этого места живыми?

Страна: Австралия
Студия: Film Victoria, Screen Australia, Southern Arc Films
Продолжительность: 01:27:37
Перевод: Профессиональный (многоголосый, закадровый)
Субтитры: Нет
Семпл
Файл
Кодек: XviD
Качество: HDRip
Видео: 720x304 (2.37:1), 24 fps, XviD build 73 ~1054 kbps avg, 0.20 bit/pixel
Звук: 48 kHz, MPEG Layer 3, 2 ch, ~128.00 kbps avg

MediaInfo

General
Complete name : Long.Weekend.2008.HDRip.ot.Portablius.avi
Format : AVI
Format/Info : Audio Video Interleave
File size : 747 MiB
Duration : 1 h 27 min
Overall bit rate : 1 192 kb/s
Writing application : VirtualDubMod 1.5.10.3 | www.virtualdub-fr.org || (build 2550/release)
Writing library : VirtualDubMod build 2550/release
Video
ID : 0
Format : MPEG-4 Visual
Format profile : Advanced Simple@L5
Format settings, BVOP : 1
Format settings, QPel : No
Format settings, GMC : No warppoints
Format settings, Matrix : Custom
Codec ID : XVID
Codec ID/Hint : XviD
Duration : 1 h 27 min
Bit rate : 1 055 kb/s
Width : 720 pixels
Height : 304 pixels
Display aspect ratio : 2.35:1
Frame rate : 24.000 FPS
Color space : YUV
Chroma subsampling : 4:2:0
Bit depth : 8 bits
Scan type : Progressive
Compression mode : Lossy
Bits/(Pixel*Frame) : 0.201
Stream size : 661 MiB (88%)
Writing library : XviD 73
Audio
ID : 1
Format : MPEG Audio
Format version : Version 1
Format profile : Layer 3
Codec ID : 55
Codec ID/Hint : MP3
Duration : 1 h 27 min
Bit rate mode : Constant
Bit rate : 128 kb/s
Channel(s) : 2 channels
Sampling rate : 48.0 kHz
Compression mode : Lossy
Stream size : 80.2 MiB (11%)
Alignment : Aligned on interleaves
Interleave, duration : 42 ms (1.00 video frame)
Interleave, preload duratio : 504 ms
Writing library : LAME3.99r
Encoding settings : -m s -V 4 -q 2 -lowpass 17 -b 128

Скриншоты

[Цитировать]



Показать сообщения:    

Текущее время: 09-Дек 10:48

Часовой пояс: UTC + 3


Вы не можете начинать темы
Вы не можете отвечать на сообщения
Вы не можете редактировать свои сообщения
Вы не можете удалять свои сообщения
Вы не можете голосовать в опросах
Вы не можете прикреплять файлы к сообщениям
Вы не можете скачивать файлы

!ВНИМАНИЕ!
Сайт не предоставляет электронные версии произведений, а занимается лишь коллекционированием и каталогизацией ссылок, присылаемых и публикуемых на форуме нашими читателями. Если вы являетесь правообладателем какого-либо представленного материала и не желаете, чтобы ссылка на него находилась в нашем каталоге, свяжитесь с нами, и мы незамедлительно удалим ее. Файлы для обмена на трекере предоставлены пользователями сайта, и администрация не несет ответственности за их содержание. Просьба не заливать файлы, защищенные авторскими правами, а также файлы нелегального содержания!