[ Сегодня идет свободное скачивание без начисления Download ]


Статистика раздачи
Нет
 
   
 
Top  
 
 
-История игрушек: Большой побег / Toy Story 3 (2010) BDRip- Русское название: История игрушек: Большой побег
Оригинальное название: Toy Story 3
Год выпуска: 2010
Жанр: Мультфильм, Фэнтези, Комедия, Приключения, Семейный
Описание:
Энди почти 18 лет, ему остаётся 3 дня до отправки в колледж, в то время как его игрушки, в том числе Вуди и Базз Лайтер, гадают о своём будущем.
Куда забросит их судьба? На чердак, на свалку или, может быть, в детский сад «Солнышко»?
События развиваются в самом неожиданном направлении, и приключения полюбившихся героев продолжаются!-Режиссер: Ли Анкрич
Персонажи: Том Хэнкс, Тим Аллен, Джоан Кьюсак, Нед Битти, Дон Риклз, Майкл Китон, Уоллес Шоун, Джон Ратценбергер, Эстель Харрис, Джон Моррис
Продолжительность: 01:43:01
Перевод: Дублированный-Видеокодек: MPEG-4 AVC/H.264
Битрейт видео: ~14,8 Мбит/сек
Размер кадра: 1920x1080
Качество видео: BDRip
Аудио №1: AC3 5.1, 640 kbps - Русский
Аудио №2: AC3 5.1, 640 kbps - Английский-[kp]258328[/kp] [imdb]tt0435761[/imdb]-Дата мировой премьеры: 12 июня 2010
Дата российской премьеры: 17 июня 2010, «WDSSPR»
Дата выхода DVD релиза: 26 октября 2010, «Уолт Дисней Компани СНГ»
Дата выхода BLU-RAY релиза: 23 ноября 2010, «Уолт Дисней Компани СНГ»-

Media info:

Общее
Уникальный идентификатор : 234179293276977596937815195605661465529 (0xB02D4A9474B571B7B38222965C6D3BB9)
Полное имя : H:\my films\TOYSTORY_3_3D.mkv
Формат : Matroska
Версия формата : Version 4 / Version 2
Размер файла : 11,8 Гбайт
Продолжительность : 1 ч. 43 м.
Общий поток : 16,4 Мбит/сек
Название фильма : TOYSTORY_3_3D_half_over/under
Дата кодирования : UTC 2010-02-22 21:41:31
Программа кодирования : mkvmerge v5.9.0 ('On The Loose') built on Dec 9 2012 15:37:01
Библиотека кодирования : libebml v1.3.0 + libmatroska v1.4.0
Видео
Идентификатор : 1
Формат : AVC
Формат/Информация : Advanced Video Codec
Профиль формата : High@L4.1
Параметр CABAC формата : Да
Параметр ReFrames формата : 4 кадра
Режим смешивания : Header stripping
Идентификатор кодека : V_MPEG4/ISO/AVC
Продолжительность : 1 ч. 43 м.
Битрейт : 14,8 Мбит/сек
Ширина : 1920 пикселей
Высота : 1080 пикселей
Соотношение сторон : 16:9
Режим частоты кадров : Постоянный
Частота кадров : 23,976 кадра/сек
Цветовое пространство : YUV
Субдискретизация насыщенности : 4:2:0
Битовая глубина : 8 бит
Тип развёртки : Прогрессивная
Бит/(Пиксели*Кадры) : 0.298
Размер потока : 10,7 Гбайт (90%)
Заголовок : rip by I/N
Библиотека кодирования : x264 core 128 r2216M 198a7ea
Настройки программы : cabac=1 / ref=4 / deblock=1:-3:-3 / analyse=0x3:0x133 / me=umh / subme=7 / psy=1 / psy_rd=1.00:0.20 / mixed_ref=1 / me_range=16 / chroma_me=1 / trellis=2 / 8x8dct=1 / cqm=1 / deadzone=21,11 / fast_pskip=1 / chroma_qp_offset=-3 / threads=4 / lookahead_threads=1 / sliced_threads=0 / nr=0 / decimate=1 / interlaced=0 / bluray_compat=0 / constrained_intra=0 / bframes=4 / b_pyramid=2 / b_adapt=2 / b_bias=0 / direct=2 / weightb=1 / open_gop=0 / weightp=2 / keyint=12 / keyint_min=2 / scenecut=60 / intra_refresh=0 / rc_lookahead=17 / rc=crf / mbtree=1 / crf=16.0 / qcomp=0.60 / qpmin=10 / qpmax=60 / qpstep=6 / vbv_maxrate=40000 / vbv_bufsize=30000 / crf_max=30.0 / nal_hrd=none / ip_ratio=1.40 / aq=1:0.70
Default : Да
Forced : Нет
Аудио #1
Идентификатор : 2
Формат : AC-3
Формат/Информация : Audio Coding 3
Расширение режима : CM (complete main)
Параметр Endianness формата : Big
Режим смешивания : Header stripping
Идентификатор кодека : A_AC3
Продолжительность : 1 ч. 43 м.
Вид битрейта : Постоянный
Битрейт : 640 Кбит/сек
Каналы : 6 каналов
Расположение каналов : Front: L C R, Side: L R, LFE
Частота : 48,0 КГц
Битовая глубина : 16 бит
Метод сжатия : С потерями
Размер потока : 472 Мбайт (4%)
Язык : Russian
Default : Да
Forced : Нет
Аудио #2
Идентификатор : 3
Формат : AC-3
Формат/Информация : Audio Coding 3
Расширение режима : CM (complete main)
Параметр Endianness формата : Big
Режим смешивания : Header stripping
Идентификатор кодека : A_AC3
Продолжительность : 1 ч. 43 м.
Вид битрейта : Постоянный
Битрейт : 640 Кбит/сек
Каналы : 6 каналов
Расположение каналов : Front: L C R, Side: L R, LFE
Частота : 48,0 КГц
Битовая глубина : 16 бит
Метод сжатия : С потерями
Размер потока : 472 Мбайт (4%)
Язык : English
Default : Нет
Forced : Нет
Меню
00:00:00.000 : en:(01)00:00:00:000
00:04:53.543 : en:(02)00:04:53:543
00:06:20.254 : en:(03)00:06:20:254
00:11:37.405 : en:(04)00:11:37:405
00:15:17.166 : en:(05)00:15:17:166
00:18:34.196 : en:(06)00:18:34:196
00:19:23.870 : en:(07)00:19:23:870
00:26:17.117 : en:(08)00:26:17:117
00:28:59.404 : en:(09)00:28:59:404
00:31:47.822 : en:(10)00:31:47:822
00:33:22.333 : en:(11)00:33:22:333
00:35:50.064 : en:(12)00:35:50:064
00:37:30.122 : en:(13)00:37:30:122
00:40:11.325 : en:(14)00:40:11:325
00:41:12.636 : en:(15)00:41:12:636
00:43:37.489 : en:(16)00:43:37:489
00:44:49.269 : en:(17)00:44:49:269
00:48:19.521 : en:(18)00:48:19:521
00:52:28.061 : en:(19)00:52:28:061
00:53:51.895 : en:(20)00:53:51:895
00:57:11.969 : en:(21)00:57:11:969
00:58:20.705 : en:(22)00:58:20:705
01:01:09.999 : en:(23)01:01:09:999
01:02:06.639 : en:(24)01:02:06:639
01:02:57.023 : en:(25)01:02:57:023
01:06:35.032 : en:(26)01:06:35:032
01:11:21.735 : en:(27)01:11:21:735
01:15:57.260 : en:(28)01:15:57:260
01:17:35.817 : en:(29)01:17:35:817
01:19:43.194 : en:(30)01:19:43:194
01:23:01.934 : en:(31)01:23:01:934
01:24:59.594 : en:(32)01:24:59:594
01:28:15.581 : en:(33)01:28:15:581
01:34:18.277 : en:(34)01:34:18:277
01:43:00.131 : en:(35)01:43:00:131
Проверено на встроенном плейере ТВ Samsung-D6500Скриншоты:

[Цитировать]



Показать сообщения:    

Текущее время: 10-Дек 04:16

Часовой пояс: UTC + 3


Вы не можете начинать темы
Вы не можете отвечать на сообщения
Вы не можете редактировать свои сообщения
Вы не можете удалять свои сообщения
Вы не можете голосовать в опросах
Вы не можете прикреплять файлы к сообщениям
Вы не можете скачивать файлы

!ВНИМАНИЕ!
Сайт не предоставляет электронные версии произведений, а занимается лишь коллекционированием и каталогизацией ссылок, присылаемых и публикуемых на форуме нашими читателями. Если вы являетесь правообладателем какого-либо представленного материала и не желаете, чтобы ссылка на него находилась в нашем каталоге, свяжитесь с нами, и мы незамедлительно удалим ее. Файлы для обмена на трекере предоставлены пользователями сайта, и администрация не несет ответственности за их содержание. Просьба не заливать файлы, защищенные авторскими правами, а также файлы нелегального содержания!