[ Сегодня идет свободное скачивание без начисления Download ]


Статистика раздачи
Нет
 
   
 
Top  
 
 
-История игрушек 2 / Toy Story 2 (1999) BDRip- Русское название: История игрушек 2
Оригинальное название: Toy Story 2
Год выпуска: 1999
Жанр: Мультфильм, Фэнтези, Комедия, Приключения, Семейный
Описание:
Ковбой Вуди и другие игрушки мальчика по имени Энди продолжают жить, радуясь каждому дню. Но неожиданно все меняется, когда Вуди похищает коварный коллекционер. Оказывается, что Вуди — очень ценная игрушка из коллекции, за которую японский музей игрушек готов заплатить огромную сумму. В доме коллекционера он находит своих родственников. В это время игрушки во главе с Баззом Лайтером отправляются спасать Вуди.
Вуди узнает о своем знаменитом прошлом, Базз и другие игрушки проходят опасный и тернистый путь. Перед Вуди встает непростой вопрос — каково же его предназначение? Блистать в витрине музея или же вернуться к любимому хозяину?-Режиссер: Джон Лассетер, Эш Браннон, Ли Анкрич
Персонажи: Том Хэнкс, Тим Аллен, Джоан Кьюсак, Келси Грэммер, Дон Риклз, Джим Варни, Уоллес Шоун, Джон Ратценбергер, Энни Поттс, Уэйн Найт
Продолжительность: 01:32:24
Перевод: Дублированный-Видеокодек: MPEG-4 AVC/H.264
Битрейт видео: ~13,2 Мбит/сек
Размер кадра: 1920x1080
Качество видео: BDRip
Аудио №1: AC3 5.1, 640 kbps - Русский
Аудио №2: AC3 5.1, 640 kbps - Английский-[kp]405[/kp] [imdb]tt0120363[/imdb]-Дата мировой премьеры: 13 ноября 1999
Дата российского ре-релиза: 1 октября 2009
Дата выхода DVD релиза: 15 июня 2010, «Уолт Дисней Компани СНГ»
Дата выхода BLU-RAY релиза: 15 ноября 2011, «Уолт Дисней Компани СНГ»-

Media info:

Общее
Уникальный идентификатор : 227010750083212305961609773499741884368 (0xAAC8AE1CE381D55DAC54214E1493CFD0)
Полное имя : H:\my films\TOYSTORY_2_3D.mkv
Формат : Matroska
Версия формата : Version 4 / Version 2
Размер файла : 9,54 Гбайт
Продолжительность : 1 ч. 32 м.
Общий поток : 14,8 Мбит/сек
Название фильма : TOYSTORY_2_3D_half_over/under
Дата кодирования : UTC 2010-02-22 21:41:31
Программа кодирования : mkvmerge v5.9.0 ('On The Loose') built on Dec 9 2012 15:37:01
Библиотека кодирования : libebml v1.3.0 + libmatroska v1.4.0
Видео
Идентификатор : 1
Формат : AVC
Формат/Информация : Advanced Video Codec
Профиль формата : [email protected]
Параметр CABAC формата : Да
Параметр ReFrames формата : 4 кадра
Режим смешивания : Header stripping
Идентификатор кодека : V_MPEG4/ISO/AVC
Продолжительность : 1 ч. 32 м.
Битрейт : 13,2 Мбит/сек
Ширина : 1920 пикселей
Высота : 1080 пикселей
Соотношение сторон : 16:9
Режим частоты кадров : Постоянный
Частота кадров : 23,976 кадра/сек
Цветовое пространство : YUV
Субдискретизация насыщенности : 4:2:0
Битовая глубина : 8 бит
Тип развёртки : Прогрессивная
Бит/(Пиксели*Кадры) : 0.266
Размер потока : 8,53 Гбайт (89%)
Заголовок : rip by I/N
Библиотека кодирования : x264 core 128 r2216M 198a7ea
Настройки программы : cabac=1 / ref=4 / deblock=1:-3:-3 / analyse=0x3:0x133 / me=umh / subme=7 / psy=1 / psy_rd=1.00:0.20 / mixed_ref=1 / me_range=16 / chroma_me=1 / trellis=2 / 8x8dct=1 / cqm=1 / deadzone=21,11 / fast_pskip=1 / chroma_qp_offset=-3 / threads=4 / lookahead_threads=1 / sliced_threads=0 / nr=0 / decimate=1 / interlaced=0 / bluray_compat=0 / constrained_intra=0 / bframes=4 / b_pyramid=2 / b_adapt=2 / b_bias=0 / direct=2 / weightb=1 / open_gop=0 / weightp=2 / keyint=12 / keyint_min=2 / scenecut=60 / intra_refresh=0 / rc_lookahead=17 / rc=crf / mbtree=1 / crf=16.0 / qcomp=0.60 / qpmin=10 / qpmax=60 / qpstep=6 / vbv_maxrate=40000 / vbv_bufsize=30000 / crf_max=30.0 / nal_hrd=none / ip_ratio=1.40 / aq=1:0.70
Default : Да
Forced : Нет
Аудио #1
Идентификатор : 2
Формат : AC-3
Формат/Информация : Audio Coding 3
Расширение режима : CM (complete main)
Параметр Endianness формата : Big
Режим смешивания : Header stripping
Идентификатор кодека : A_AC3
Продолжительность : 1 ч. 32 м.
Вид битрейта : Постоянный
Битрейт : 640 Кбит/сек
Каналы : 6 каналов
Расположение каналов : Front: L C R, Side: L R, LFE
Частота : 48,0 КГц
Битовая глубина : 16 бит
Метод сжатия : С потерями
Размер потока : 423 Мбайт (4%)
Язык : Russian
Default : Да
Forced : Нет
Аудио #2
Идентификатор : 3
Формат : AC-3
Формат/Информация : Audio Coding 3
Расширение режима : CM (complete main)
Параметр Endianness формата : Big
Режим смешивания : Header stripping
Идентификатор кодека : A_AC3
Продолжительность : 1 ч. 32 м.
Вид битрейта : Постоянный
Битрейт : 640 Кбит/сек
Каналы : 6 каналов
Расположение каналов : Front: L C R, Side: L R, LFE
Частота : 48,0 КГц
Битовая глубина : 16 бит
Метод сжатия : С потерями
Размер потока : 423 Мбайт (4%)
Язык : English
Default : Нет
Forced : Нет
Меню
00:00:00.000 : en:(01)00:00:00:000
00:01:23.583 : en:(02)00:01:23:583
00:04:48.287 : en:(03)00:04:48:287
00:07:35.788 : en:(04)00:07:35:788
00:10:40.931 : en:(05)00:10:40:931
00:11:54.797 : en:(06)00:11:54:797
00:12:47.099 : en:(07)00:12:47:099
00:15:29.928 : en:(08)00:15:29:928
00:18:15.844 : en:(09)00:18:15:844
00:20:17.591 : en:(10)00:20:17:591
00:24:14.035 : en:(11)00:24:14:035
00:25:54.386 : en:(12)00:25:54:386
00:30:32.121 : en:(13)00:30:32:121
00:31:48.448 : en:(14)00:31:48:448
00:32:51.469 : en:(15)00:32:51:469
00:36:44.994 : en:(16)00:36:44:994
00:39:09.138 : en:(17)00:39:09:138
00:39:53.057 : en:(18)00:39:53:057
00:41:06.338 : en:(19)00:41:06:338
00:42:26.210 : en:(20)00:42:26:210
00:44:41.345 : en:(21)00:44:41:345
00:46:58.565 : en:(22)00:46:58:565
00:53:23.950 : en:(23)00:53:23:950
00:56:19.918 : en:(24)00:56:19:918
01:01:10.041 : en:(25)01:01:10:041
01:02:14.272 : en:(26)01:02:14:272
01:04:23.901 : en:(27)01:04:23:901
01:08:00.409 : en:(28)01:08:00:409
01:09:52.187 : en:(29)01:09:52:187
01:12:27.467 : en:(30)01:12:27:467
01:14:58.493 : en:(31)01:14:58:493
01:17:28.310 : en:(32)01:17:28:310
01:19:46.281 : en:(33)01:19:46:281
01:21:35.807 : en:(34)01:21:35:807
01:25:48.977 : en:(35)01:25:48:977
01:32:24.163 : en:(36)01:32:24:163
Проверено на встроенном плейере ТВ Samsung-D6500Скриншоты:

[Цитировать]



Показать сообщения:    

Текущее время: 06-Дек 13:13

Часовой пояс: UTC + 3


Вы не можете начинать темы
Вы не можете отвечать на сообщения
Вы не можете редактировать свои сообщения
Вы не можете удалять свои сообщения
Вы не можете голосовать в опросах
Вы не можете прикреплять файлы к сообщениям
Вы не можете скачивать файлы

!ВНИМАНИЕ!
Сайт не предоставляет электронные версии произведений, а занимается лишь коллекционированием и каталогизацией ссылок, присылаемых и публикуемых на форуме нашими читателями. Если вы являетесь правообладателем какого-либо представленного материала и не желаете, чтобы ссылка на него находилась в нашем каталоге, свяжитесь с нами, и мы незамедлительно удалим ее. Файлы для обмена на трекере предоставлены пользователями сайта, и администрация не несет ответственности за их содержание. Просьба не заливать файлы, защищенные авторскими правами, а также файлы нелегального содержания!