[ Сегодня идет свободное скачивание без начисления Download ]


Статистика раздачи
Нет
 
   
 
Top  
 
 
-История игрушек / Toy Story (1995) BDRip- Русское название: История игрушек
Оригинальное название: Toy Story
Год выпуска: 1995
Жанр: Мультфильм, Фэнтези, Комедия, Приключения, Семейный
Описание:
Каждый ребенок верит, что когда он оставляет свои игрушки одни, они начинают заниматься своими делами. Этот мультипликационный фильм позволяет убедиться им в своей правоте.
Основная идея фильма — каждая игрушка боится надоесть, стать забытой, замененной другой, так как весь смысл их существования — доставлять счастье своим хозяевам.-Режиссер: Джон Лассетер
Персонажи: Том Хэнкс, Тим Аллен, Дон Риклз, Джим Варни, Уоллес Шоун, Джон Ратценбергер, Энни Поттс, Джон Моррис, Эрик фон Деттен, Лори Меткаф
Продолжительность: 01:21:05
Перевод: Дублированный-Видеокодек: MPEG-4 AVC/H.264
Битрейт видео: ~12,4 Мбит/сек
Размер кадра: 1920x1080
Качество видео: BDRip
Аудио №1: AC3 5.1, 640 kbps - Русский
Аудио №2: AC3 5.1, 640 kbps - Английский-[kp]482[/kp] [imdb]tt0114709[/imdb]-Дата мировой премьеры: 19 ноября 1995
Дата российского ре-релиза: 1 октября 2009
Дата выхода DVD релиза: 1 июня 2010, «Уолт Дисней Компани СНГ»
Дата выхода BLU-RAY релиза: 15 ноября 2011, «Уолт Дисней Компани СНГ»-

Media info:

Общее
Уникальный идентификатор : 205914817346276716446148094298784519756 (0x9AE9C0535CFDFB9EAB716A009407D64C)
Полное имя : H:\my films\TOYSTORY_1_3D.mkv
Формат : Matroska
Версия формата : Version 4 / Version 2
Размер файла : 7,90 Гбайт
Продолжительность : 1 ч. 21 м.
Общий поток : 13,9 Мбит/сек
Название фильма : TOYSTORY_1_3D_half_over/under
Дата кодирования : UTC 2010-02-22 21:41:31
Программа кодирования : mkvmerge v5.9.0 ('On The Loose') built on Dec 9 2012 15:37:01
Библиотека кодирования : libebml v1.3.0 + libmatroska v1.4.0
Видео
Идентификатор : 1
Формат : AVC
Формат/Информация : Advanced Video Codec
Профиль формата : High@L4.1
Параметр CABAC формата : Да
Параметр ReFrames формата : 4 кадра
Режим смешивания : Header stripping
Идентификатор кодека : V_MPEG4/ISO/AVC
Продолжительность : 1 ч. 21 м.
Битрейт : 12,4 Мбит/сек
Ширина : 1920 пикселей
Высота : 1080 пикселей
Соотношение сторон : 16:9
Режим частоты кадров : Постоянный
Частота кадров : 23,976 кадра/сек
Цветовое пространство : YUV
Субдискретизация насыщенности : 4:2:0
Битовая глубина : 8 бит
Тип развёртки : Прогрессивная
Бит/(Пиксели*Кадры) : 0.249
Размер потока : 7,02 Гбайт (89%)
Заголовок : rip by I/N
Библиотека кодирования : x264 core 128 r2216M 198a7ea
Настройки программы : cabac=1 / ref=4 / deblock=1:-3:-3 / analyse=0x3:0x133 / me=umh / subme=7 / psy=1 / psy_rd=1.00:0.20 / mixed_ref=1 / me_range=32 / chroma_me=1 / trellis=2 / 8x8dct=1 / cqm=1 / deadzone=21,11 / fast_pskip=1 / chroma_qp_offset=-3 / threads=4 / lookahead_threads=1 / sliced_threads=0 / nr=0 / decimate=1 / interlaced=0 / bluray_compat=0 / constrained_intra=0 / bframes=4 / b_pyramid=2 / b_adapt=2 / b_bias=0 / direct=1 / weightb=1 / open_gop=0 / weightp=2 / keyint=12 / keyint_min=2 / scenecut=60 / intra_refresh=0 / rc_lookahead=17 / rc=crf / mbtree=1 / crf=16.0 / qcomp=0.60 / qpmin=10 / qpmax=60 / qpstep=6 / vbv_maxrate=40000 / vbv_bufsize=30000 / crf_max=30.0 / nal_hrd=none / ip_ratio=1.40 / aq=1:0.70
Default : Да
Forced : Нет
Аудио #1
Идентификатор : 2
Формат : AC-3
Формат/Информация : Audio Coding 3
Расширение режима : CM (complete main)
Параметр Endianness формата : Big
Режим смешивания : Header stripping
Идентификатор кодека : A_AC3
Продолжительность : 1 ч. 21 м.
Вид битрейта : Постоянный
Битрейт : 640 Кбит/сек
Каналы : 6 каналов
Расположение каналов : Front: L C R, Side: L R, LFE
Частота : 48,0 КГц
Битовая глубина : 16 бит
Метод сжатия : С потерями
Задержка видео : 27 мс.
Размер потока : 371 Мбайт (5%)
Язык : Russian
Default : Да
Forced : Нет
Аудио #2
Идентификатор : 3
Формат : AC-3
Формат/Информация : Audio Coding 3
Расширение режима : CM (complete main)
Параметр Endianness формата : Big
Режим смешивания : Header stripping
Идентификатор кодека : A_AC3
Продолжительность : 1 ч. 21 м.
Вид битрейта : Постоянный
Битрейт : 640 Кбит/сек
Каналы : 6 каналов
Расположение каналов : Front: L C R, Side: L R, LFE
Частота : 48,0 КГц
Битовая глубина : 16 бит
Метод сжатия : С потерями
Задержка видео : 27 мс.
Размер потока : 371 Мбайт (5%)
Язык : English
Default : Нет
Forced : Нет
Меню
00:00:00.000 : en:(01)00:00:00:000
00:02:02.247 : en:(02)00:02:02:247
00:04:00.365 : en:(03)00:04:00:365
00:06:34.018 : en:(04)00:06:34:018
00:09:19.267 : en:(05)00:09:19:267
00:14:16.981 : en:(06)00:14:16:981
00:20:10.250 : en:(07)00:20:10:250
00:22:17.210 : en:(08)00:22:17:210
00:24:24.963 : en:(09)00:24:24:963
00:26:01.226 : en:(10)00:26:01:226
00:29:28.933 : en:(11)00:29:28:933
00:30:09.349 : en:(12)00:30:09:349
00:35:09.857 : en:(13)00:35:09:857
00:39:25.404 : en:(14)00:39:25:404
00:42:59.535 : en:(15)00:42:59:535
00:43:43.328 : en:(16)00:43:43:328
00:46:25.699 : en:(17)00:46:25:699
00:47:20.170 : en:(18)00:47:20:170
00:49:08.111 : en:(19)00:49:08:111
00:51:08.523 : en:(20)00:51:08:523
00:53:49.934 : en:(21)00:53:49:934
00:56:23.713 : en:(22)00:56:23:713
00:57:14.764 : en:(23)00:57:14:764
01:01:41.072 : en:(24)01:01:41:072
01:02:50.099 : en:(25)01:02:50:099
01:04:49.093 : en:(26)01:04:49:093
01:07:58.657 : en:(27)01:07:58:657
01:13:10.302 : en:(28)01:13:10:302
01:15:40.077 : en:(29)01:15:40:077
01:17:08.373 : en:(30)01:17:08:373
01:21:04.693 : en:(31)01:21:04:693
Проверено на встроенном плейере ТВ Samsung-D6500Скриншоты:

[Цитировать]



Показать сообщения:    

Текущее время: 10-Дек 06:05

Часовой пояс: UTC + 3


Вы не можете начинать темы
Вы не можете отвечать на сообщения
Вы не можете редактировать свои сообщения
Вы не можете удалять свои сообщения
Вы не можете голосовать в опросах
Вы не можете прикреплять файлы к сообщениям
Вы не можете скачивать файлы

!ВНИМАНИЕ!
Сайт не предоставляет электронные версии произведений, а занимается лишь коллекционированием и каталогизацией ссылок, присылаемых и публикуемых на форуме нашими читателями. Если вы являетесь правообладателем какого-либо представленного материала и не желаете, чтобы ссылка на него находилась в нашем каталоге, свяжитесь с нами, и мы незамедлительно удалим ее. Файлы для обмена на трекере предоставлены пользователями сайта, и администрация не несет ответственности за их содержание. Просьба не заливать файлы, защищенные авторскими правами, а также файлы нелегального содержания!