[ Сегодня идет свободное скачивание без начисления Download ]


Статистика раздачи
Нет
 
   
 
Top  
 
 
-Билет на Vegas (2012) DVDRip
«Кто же сорвет джек-пот?»
- Русское название: Билет на Vegas
Год выпуска: 2012
Производство: Россия, США / 3 Days in Vegas, MG Media, NG Production
Жанр: Комедия, Приключения
Перевод: Не требуется
Субтитры: Отсутствуют
Дата мировой премьеры: 24 января 2013
Дата российской премьеры: 24 января 2013, «Парадиз»
Дата выхода DVD релиза: 19 февраля 2013, «Парадиз Медиа»
Дата выхода Blu-Ray релиза: 19 февраля 2013, «Парадиз Медиа»
Режиссер: Гор Киракосян
Актеры: Михаил Галустян, Дэнни Трехо, Олег Тактаров, Иван Стебунов, Владимир Яглыч, Ингрид Олеринская, Наталья Ноздрина, Виталий Хаев, Ким Уитли, Гильермо Диас
Описание фильма:
На молодую парочку, Макса и Лизу, сваливается удача: они становятся победителями лотереи с выигрышем в пять миллионов долларов! Но получить деньги можно только на торжественной церемонии в столице порока, азартных игр и безудержного веселья, Лас Вегасе…
Счастливчики не подозревают, что на большой куш есть и другие претенденты. Оказавшись в Америке, они попадают на крючок очень опасного, но невероятно обаятельного мошенника Гарика, вылитого Элвиса Пресли.
Кто же сорвет джек-пот?

Продолжительность: 01:26:02
Качество видео: DVDRip [MysTeRy]
Видеокодек: MPEG-4 AVC/H.264
Битрейт видео: ~2042 Кбит/сек
Размер кадра: 720 x 424@1024 x 424
Аудиокодек: AC3 5.1
Битрейт аудио: 384 Кбит/сек

MediaInfo:

Общее
Уникальный идентификатор         : 206505991202691741882438522397696710040 (0x9B5B9B7275A0B302ABB34F609B6BD598)
Полное имя                       : H:\Bilet.na.Vegas.2012.O.x264.DVDRip.mkv
Формат                           : Matroska
Версия формата                   : Version 4 / Version 2
Размер файла                     : 1,46 Гбайт
Продолжительность                : 1 ч. 26 м.
Общий поток                      : 2425 Кбит/сек
Название фильма                  : Bilet.na.Vegas.2012.O.x264.DVDRip-MysTeRy
Дата кодирования                 : UTC 2013-02-09 12:53:33
Программа кодирования            : mkvmerge v6.0.0 ('Coming Up For Air') built on Jan 20 2013 09:52:00
Библиотека кодирования           : libebml v1.3.0 + libmatroska v1.4.0
Видео
Идентификатор                    : 1
Формат                           : AVC
Формат/Информация                : Advanced Video Codec
Профиль формата                  : [url=mailto:High@L4.1]High@L4.1[/url]
Параметр CABAC формата           : Да
Параметр ReFrames формата        : 12 кадров
Идентификатор кодека             : V_MPEG4/ISO/AVC
Продолжительность                : 1 ч. 26 м.
Битрейт                          : 2042 Кбит/сек
Ширина                           : 720 пикселей
Высота                           : 424 пикселя
Соотношение сторон               : 2,40:1
Частота кадров                   : 25,000 кадров/сек
Цветовое пространство            : YUV
Субдискретизация насыщенности    : 4:2:0
Битовая глубина                  : 8 бит
Тип развёртки                    : Прогрессивная
Бит/(Пиксели*Кадры)              : 0.268
Размер потока                    : 1,20 Гбайт (82%)
Заголовок                        : ENCODER........: MysTeRy
Библиотека кодирования           : x264 core 125 r2208 d9d2288
Настройки программы              : cabac=1 / ref=12 / deblock=1:-3:-2 / analyse=0x3:0x133 / me=umh / subme=10 / psy=1 / psy_rd=1.00:0.10 / mixed_ref=1 / me_range=32 / chroma_me=1 / trellis=2 / 8x8dct=1 / cqm=0 / deadzone=21,11 / fast_pskip=0 / chroma_qp_offset=-3 / threads=12 / lookahead_threads=2 / sliced_threads=0 / nr=0 / decimate=0 / interlaced=0 / bluray_compat=0 / constrained_intra=0 / bframes=7 / b_pyramid=2 / b_adapt=2 / b_bias=0 / direct=3 / weightb=1 / open_gop=0 / weightp=2 / keyint=250 / keyint_min=25 / scenecut=40 / intra_refresh=0 / rc_lookahead=60 / rc=2pass / mbtree=0 / bitrate=2042 / ratetol=1.0 / qcomp=0.70 / qpmin=0 / qpmax=69 / qpstep=4 / cplxblur=20.0 / qblur=0.5 / vbv_maxrate=50000 / vbv_bufsize=61400 / nal_hrd=none / ip_ratio=1.40 / pb_ratio=1.30 / aq=1:0.80
Язык                             : Russian
Default                          : Да
Forced                           : Нет
Основные цвета                   : BT.709-5, BT.1361, IEC 61966-2-4, SMPTE RP177
Характеристики трансфера         : BT.709-5, BT.1361
Коэффициенты матрицы             : BT.709-5, BT.1361, IEC 61966-2-4 709, SMPTE RP177
Аудио
Идентификатор                    : 2
Формат                           : AC-3
Формат/Информация                : Audio Coding 3
Расширение режима                : CM (complete main)
Идентификатор кодека             : A_AC3
Продолжительность                : 1 ч. 26 м.
Вид битрейта                     : Постоянный
Битрейт                          : 384 Кбит/сек
Каналы                           : 6 каналов
Расположение каналов             : Front: L C R, Side: L R, LFE
Частота                          : 48,0 КГц
Битовая глубина                  : 16 бит
Метод сжатия                     : С потерями
Размер потока                    : 236 Мбайт (16%)
Заголовок                        : Original
Язык                             : Russian
Default                          : Да
Forced                           : Нет
Меню
00:00:00.000                     : en:Chapter 1
00:03:36.508                     : en:Chapter 2
00:08:00.313                     : en:Chapter 3
00:11:01.744                     : en:Chapter 4
00:13:24.721                     : en:Chapter 5
00:16:57.016                     : en:Chapter 6
00:20:51.250                     : en:Chapter 7
00:25:05.129                     : en:Chapter 8
00:30:09.975                     : en:Chapter 9
00:35:03.560                     : en:Chapter 10
00:39:06.177                     : en:Chapter 11
00:43:04.540                     : en:Chapter 12
00:46:16.816                     : en:Chapter 13
00:50:02.458                     : en:Chapter 14
00:52:48.707                     : en:Chapter 15
00:55:26.573                     : en:Chapter 16
00:57:09.926                     : en:Chapter 17
01:01:59.341                     : en:Chapter 18
01:05:47.569                     : en:Chapter 19
01:08:22.098                     : en:Chapter 20
01:12:05.404                     : en:Chapter 21
01:17:08.749                     : en:Chapter 22
01:24:01.912                     : en:Chapter 23
Скриншоты:



Время раздачи: 16.30-23.00 до 5 скачавших

[Цитировать]

Топик был перенесен из форума Новинки кинопроката в форум Комедия
Henkok



Показать сообщения:    

Текущее время: 09-Дек 01:09

Часовой пояс: UTC + 3


Вы не можете начинать темы
Вы не можете отвечать на сообщения
Вы не можете редактировать свои сообщения
Вы не можете удалять свои сообщения
Вы не можете голосовать в опросах
Вы не можете прикреплять файлы к сообщениям
Вы не можете скачивать файлы

!ВНИМАНИЕ!
Сайт не предоставляет электронные версии произведений, а занимается лишь коллекционированием и каталогизацией ссылок, присылаемых и публикуемых на форуме нашими читателями. Если вы являетесь правообладателем какого-либо представленного материала и не желаете, чтобы ссылка на него находилась в нашем каталоге, свяжитесь с нами, и мы незамедлительно удалим ее. Файлы для обмена на трекере предоставлены пользователями сайта, и администрация не несет ответственности за их содержание. Просьба не заливать файлы, защищенные авторскими правами, а также файлы нелегального содержания!