[ Сегодня идет свободное скачивание без начисления Download ]


Статистика раздачи
Нет
 
   
 
Top  
 
 
-Коллекционер 2 / The Collection (2012) BDRip
«Не попади в его коллекцию»
- Русское название: Коллекционер 2
Оригинальное название: The Collection
Год выпуска: 2012
Производство: США / LD Entertainment, Fortress Features
Жанр: Ужасы, Боевик, Триллер
Перевод: Дублированный [лицензия]
Субтитры: Вшитые отключаемые
Язык субтитров: Русский
Дата мировой премьеры: 21 сентября 2012
Дата российской премьеры: 29 ноября 2012, «Каравелла DDC»
Дата выхода DVD релиза: 30 января 2013, «Кармен Видео», «ВС трейд»
Дата выхода Blu-Ray релиза: 30 января 2013, «Кармен Видео»
Режиссер: Маркус Данстэн
Актеры: Джош Стюарт, Эмма Фитцпатрик, Кристофер МакДональд, Ли Тергесен, Тим Гриффин, Андре Ройо, Рэндолл Арчер, Шеннон Кэйн, Брэндон, Молале, Эрин Вэй
Описание фильма:
Бывалому медвежатнику Аркину чудесным образом удалось выбраться из ловушек, расставленных по дому загадочным маньяком Коллекционером. Аркин был уверен, что он никогда в жизни больше не встретится с Коллекциoнером, но cудьба распоряжается иначе.

Продолжительность: 01:21:38
Качество видео: BDRip [MysTeRy]
Видеокодек: MPEG-4 AVC/H.264
Битрейт видео: ~3371 Кбит/сек
Размер кадра: 1280x536
Аудиокодек: AC3 5.1
Битрейт аудио: 448 Кбит/сек

MediaInfo:

Общее
Уникальный идентификатор         : 231449800507781496417166758306994417223 (0xAE1F9C3244C6C105ADB4956498A36E47)
Полное имя                       : H:\Коллекционер.2.2012.D.x264.BDRip.mkv
Формат                           : Matroska
Версия формата                   : Version 4 / Version 2
Размер файла                     : 2,18 Гбайт
Продолжительность                : 1 ч. 21 м.
Общий поток                      : 3817 Кбит/сек
Название фильма                  : Коллекционер.2.2012.D.x264.BDRip-MysTeRy
Дата кодирования                 : UTC 2013-01-26 13:16:35
Программа кодирования            : mkvmerge v6.0.0 ('Coming Up For Air') built on Jan 20 2013 09:52:00
Библиотека кодирования           : libebml v1.3.0 + libmatroska v1.4.0
Видео
Идентификатор                    : 1
Формат                           : AVC
Формат/Информация                : Advanced Video Codec
Профиль формата                  : [url=mailto:High@L4.1]High@L4.1[/url]
Параметр CABAC формата           : Да
Параметр ReFrames формата        : 12 кадров
Идентификатор кодека             : V_MPEG4/ISO/AVC
Продолжительность                : 1 ч. 21 м.
Битрейт                          : 3371 Кбит/сек
Ширина                           : 1280 пикселей
Высота                           : 536 пикселей
Соотношение сторон               : 2,40:1
Частота кадров                   : 24,000 кадра/сек
Цветовое пространство            : YUV
Субдискретизация насыщенности    : 4:2:0
Битовая глубина                  : 8 бит
Тип развёртки                    : Прогрессивная
Бит/(Пиксели*Кадры)              : 0.205
Размер потока                    : 1,88 Гбайт (86%)
Заголовок                        : ENCODER........: MysTeRy
Библиотека кодирования           : x264 core 125 r2208 d9d2288
Настройки программы              : cabac=1 / ref=12 / deblock=1:-3:-3 / analyse=0x3:0x133 / me=umh / subme=10 / psy=1 / psy_rd=1.00:0.00 / mixed_ref=1 / me_range=32 / chroma_me=1 / trellis=2 / 8x8dct=1 / cqm=0 / deadzone=21,11 / fast_pskip=0 / chroma_qp_offset=-2 / threads=12 / lookahead_threads=2 / sliced_threads=0 / nr=0 / decimate=0 / interlaced=0 / bluray_compat=0 / constrained_intra=0 / bframes=10 / b_pyramid=2 / b_adapt=2 / b_bias=0 / direct=3 / weightb=1 / open_gop=0 / weightp=2 / keyint=250 / keyint_min=23 / scenecut=40 / intra_refresh=0 / rc_lookahead=60 / rc=2pass / mbtree=0 / bitrate=3371 / ratetol=1.0 / qcomp=0.70 / qpmin=10 / qpmax=69 / qpstep=4 / cplxblur=20.0 / qblur=0.5 / vbv_maxrate=50000 / vbv_bufsize=61400 / nal_hrd=none / ip_ratio=1.40 / pb_ratio=1.30 / aq=1:0.80
Язык                             : English
Default                          : Да
Forced                           : Нет
Основные цвета                   : BT.709-5, BT.1361, IEC 61966-2-4, SMPTE RP177
Характеристики трансфера         : BT.709-5, BT.1361
Коэффициенты матрицы             : BT.709-5, BT.1361, IEC 61966-2-4 709, SMPTE RP177
Аудио
Идентификатор                    : 2
Формат                           : AC-3
Формат/Информация                : Audio Coding 3
Расширение режима                : CM (complete main)
Идентификатор кодека             : A_AC3
Продолжительность                : 1 ч. 21 м.
Вид битрейта                     : Постоянный
Битрейт                          : 448 Кбит/сек
Каналы                           : 6 каналов
Расположение каналов             : Front: L C R, Side: L R, LFE
Частота                          : 48,0 КГц
Битовая глубина                  : 16 бит
Метод сжатия                     : С потерями
Размер потока                    : 262 Мбайт (12%)
Заголовок                        : Dub
Язык                             : Russian
Default                          : Да
Forced                           : Нет
Текст
Идентификатор                    : 3
Формат                           : UTF-8
Идентификатор кодека             : S_TEXT/UTF8
Идентификатор кодека/Информация  : UTF-8 Plain Text
Язык                             : Russian
Default                          : Нет
Forced                           : Нет
Меню
00:00:00.000                     : en:
00:06:29.375                     : en:
00:15:08.875                     : en:
00:22:12.791                     : en:
00:30:06.958                     : en:
00:37:45.750                     : en:
00:45:24.500                     : en:
00:53:11.875                     : en:
00:58:20.375                     : en:
01:04:21.833                     : en:
01:10:12.208                     : en:
01:16:16.583                     : en:

x264:

x264 [info]: frame I:1055  Avg QP:16.95  size: 60734
x264 [info]: frame P:27921 Avg QP:18.11  size: 32726
x264 [info]: frame B:88589 Avg QP:19.99  size: 11376
Скриншоты:



Время раздачи: 16.30-23.00 до 5 скачавших

[Цитировать]

Топик был перенесен из форума Новинки кинопроката в форум Ужасы
Henkok



Показать сообщения:    

Текущее время: 28-Фев 00:01

Часовой пояс: UTC + 3


Вы не можете начинать темы
Вы не можете отвечать на сообщения
Вы не можете редактировать свои сообщения
Вы не можете удалять свои сообщения
Вы не можете голосовать в опросах
Вы не можете прикреплять файлы к сообщениям
Вы не можете скачивать файлы

!ВНИМАНИЕ!
Сайт не предоставляет электронные версии произведений, а занимается лишь коллекционированием и каталогизацией ссылок, присылаемых и публикуемых на форуме нашими читателями. Если вы являетесь правообладателем какого-либо представленного материала и не желаете, чтобы ссылка на него находилась в нашем каталоге, свяжитесь с нами, и мы незамедлительно удалим ее. Файлы для обмена на трекере предоставлены пользователями сайта, и администрация не несет ответственности за их содержание. Просьба не заливать файлы, защищенные авторскими правами, а также файлы нелегального содержания!