[ Сегодня идет свободное скачивание без начисления Download ]


Статистика раздачи
Нет
 
   
 
Top  
 
 
-Коллекционер 2 / The Collection (2012) BDRip- Русское название: Коллекционер 2
Оригинальное название: The Collection
Год выпуска: 2012
Производство: США, Fortress Features, Liddell Entertainment
Жанр: Ужасы, Боевик, Триллер
Перевод: Дублированный [Лицензия]
Субтитры: Отсутствуют
Дата мировой премьеры: 21 сентября 2012
Дата российской премьеры: 29 ноября 2012
Дата выхода DVD релиза: 30 января 2013
Режиссер: Маркус Данстэн
Актеры: Джош Стюарт, Эмма Фитцпатрик, Кристофер МакДональд, Ли Тергесен, Тим Гриффин, Андре Ройо, Рэндолл Арчер, Шеннон Кэйн, Брэндон, Молале, Эрин Вэй
Описание фильма:
Бывалому медвежатнику Аркину чудесным образом удалось выбраться из ловушек, расставленных по дому загадочным маньяком Коллекционером. Аркин был уверен, что он никогда в жизни больше не встретится с Коллекциoнером, но cудьба распоряжается иначе.- -
Продолжительность: 01:21:38
Качество видео: BDRip [рип с Blu-Ray 1080p]
Видеокодек: XViD
Битрейт видео: ~ 1940 Kbps
Размер кадра: 720x304
Аудио: AC3, 448 kb/s (6 ch)-Сравнение 1 Сравнение 2 с DVDRip

MI

Общее
Полное имя                               : E:\Загрузка\Kollekcioner.2.2012.D.BDRip.avi
Формат                                   : AVI
Формат/Информация                        : Audio Video Interleave
Размер файла                             : 1,37 Гбайт
Продолжительность                        : 1 ч. 21 м.
Общий поток                              : 2398 Кбит/сек
Название фильма                          : Kollekcioner.2.2012.D.BDRip
Жанр                                     : Action | Horror | Thriller
Программа кодирования                    : VirtualDubMod 1.5.10.3 | [url=http://www.virtualdub-fr.org]www.virtualdub-fr.org[/url] || (build 2550/release)
Видео
Идентификатор                            : 0
Формат                                   : MPEG-4 Visual
Профиль формата                          : Advanced Simple@L5
Параметр BVOP формата                    : 1
Параметр QPel формата                    : Нет
Параметр GMC формата                     : Без точки перехода
Параметр матрицы формата                 : Выборочная
Идентификатор кодека                     : XVID
Идентификатор кодека/Подсказка           : XviD
Продолжительность                        : 1 ч. 21 м.
Битрейт                                  : 1940 Кбит/сек
Ширина                                   : 720 пикселей
Высота                                   : 304 пикселя
Соотношение сторон                       : 2,35:1
Частота кадров                           : 24,000 кадра/сек
Цветовое пространство                    : YUV
Субдискретизация насыщенности            : 4:2:0
Битовая глубина                          : 8 бит
Тип развёртки                            : Прогрессивная
Метод сжатия                             : С потерями
Бит/(Пиксели*Кадры)                      : 0.369
Размер потока                            : 1,11 Гбайт (81%)
Библиотека кодирования                   : XviD 1.2.1 (UTC 2008-12-04)
Аудио
Идентификатор                            : 1
Формат                                   : AC-3
Формат/Информация                        : Audio Coding 3
Расширение режима                        : CM (complete main)
Параметр Endianness формата              : Big
Идентификатор кодека                     : 2000
Продолжительность                        : 1 ч. 21 м.
Вид битрейта                             : Постоянный
Битрейт                                  : 448 Кбит/сек
Каналы                                   : 6 каналов
Расположение каналов                     : Front: L C R, Side: L R, LFE
Частота                                  : 48,0 КГц
Битовая глубина                          : 16 бит
Метод сжатия                             : С потерями
Размер потока                            : 262 Мбайт (19%)
Выравнивание                             : Разделение по промежуткам
Продолжительность промежутка             : 42  мс. (1,00 видеокадр)
Время предзагрузки промежутка            : 500  мс.
-Cкриншоты из фильма:
-Приятного просмотра
и не забываем говорить СПАСИБО...
Время раздачи: 24/7,
до 15 скачавших...

[Цитировать]



Показать сообщения:    

Текущее время: 08-Дек 12:55

Часовой пояс: UTC + 3


Вы не можете начинать темы
Вы не можете отвечать на сообщения
Вы не можете редактировать свои сообщения
Вы не можете удалять свои сообщения
Вы не можете голосовать в опросах
Вы не можете прикреплять файлы к сообщениям
Вы не можете скачивать файлы

!ВНИМАНИЕ!
Сайт не предоставляет электронные версии произведений, а занимается лишь коллекционированием и каталогизацией ссылок, присылаемых и публикуемых на форуме нашими читателями. Если вы являетесь правообладателем какого-либо представленного материала и не желаете, чтобы ссылка на него находилась в нашем каталоге, свяжитесь с нами, и мы незамедлительно удалим ее. Файлы для обмена на трекере предоставлены пользователями сайта, и администрация не несет ответственности за их содержание. Просьба не заливать файлы, защищенные авторскими правами, а также файлы нелегального содержания!