[ Сегодня идет свободное скачивание без начисления Download ]


Статистика раздачи
Нет
 
   
 
Top  
 
 
-Апартаменты 1303 / Apartment 1303 3D (2012) DVDRip- Русское название: Апартаменты 1303
Оригинальное название: Apartment 1303 3D
Год выпуска: 2012
Производство: США, Канада, 1303 Productions, Monte Cristo Entertainment, MonteCristo Pictures
Жанр: Ужасы, триллер
Перевод: Дублированный [лицензия]
Субтитры: Отсутствуют-Режиссер: Мишель Таверна
Сценарий: Мишель Таверна, Кеи Оиши
Актеры: Миша Бартон, Ребекка Де Морнэй, Джулианна Мишель, Кори Севьер, Джон Дил, Джиллиан Олтмэн, Кэтерин Клилэнд, Кэтлин Мэкки, Джессика Малька, Гордон Мастен-Описание фильма:
В этой квартире всегда рады новым жильцам. Но никто не знает о легенде проклятия, которое здесь обитает. Говорят в апартаментах N1303, живут призраки матери и дочери, погибшие насильственной смертью. Не найдя покоя, духи мертвых жаждят отомстить своим убийцам. Каждый, кто переступает порог комнаты ужаса, становится их заложником. И еще никому не удалось вырваться из плена смерти…- -Дата мировой премьеры: 6 декабря 2012
Дата российской премьеры: 6 декабря 2012, «Люксор» 3D
Дата выхода DVD релиза: 21 января 2013, «Новый Диск»-Продолжительность: 01:21:39
Качество видео: DVDRip-Видеокодек: MPEG-4 AVC/H.264
Битрейт видео: 2154 Кбит/с
Размер кадра: [email protected]
Аудиокодек: AC3 5.1
Битрейт аудио: 384 Кбит/с

MediaInfo

Общее
Уникальный идентификатор : 171970985913353662557505350310514027758 (0x81606839E8E3F9DE8747CAC5A0A66CEE)
Полное имя : D:\Торрент раздача\Apartamenty.1303.2012.х264.DVDRip.(AVC).mkv
Формат : Matroska
Версия формата : Version 2
Размер файла : 1,45 Гбайт
Продолжительность : 1 ч. 21 м.
Общий поток : 2539 Кбит/сек
Дата кодирования : UTC 2013-01-19 08:25:58
Программа кодирования : mkvmerge v5.8.0 ('No Sleep / Pillow') built on Sep 2 2012 15:37:04
Библиотека кодирования : libebml v1.2.3 + libmatroska v1.3.0
Видео
Идентификатор : 1
Формат : AVC
Формат/Информация : Advanced Video Codec
Профиль формата : [email protected]
Параметр CABAC формата : Да
Параметр ReFrames формата : 5 кадров
Идентификатор кодека : V_MPEG4/ISO/AVC
Продолжительность : 1 ч. 21 м.
Битрейт : 2154 Кбит/сек
Ширина : 720 пикселей
Высота : 432 пикселя
Соотношение сторон : 2,40:1
Режим частоты кадров : Постоянный
Частота кадров : 25,000 кадров/сек
Цветовое пространство : YUV
Субдискретизация насыщенности : 4:2:0
Битовая глубина : 8 бит
Тип развёртки : Прогрессивная
Бит/(Пиксели*Кадры) : 0.277
Размер потока : 1,20 Гбайт (83%)
Библиотека кодирования : x264 core 129 r2245 bc13772
Настройки программы : cabac=1 / ref=5 / deblock=1:-1:-1 / analyse=0x3:0x133 / me=umh / subme=7 / psy=1 / psy_rd=1.00:0.00 / mixed_ref=1 / me_range=32 / chroma_me=1 / trellis=2 / 8x8dct=1 / cqm=0 / deadzone=21,11 / fast_pskip=1 / chroma_qp_offset=-2 / threads=4 / lookahead_threads=1 / sliced_threads=0 / nr=0 / decimate=1 / interlaced=0 / bluray_compat=0 / constrained_intra=0 / bframes=5 / b_pyramid=2 / b_adapt=2 / b_bias=0 / direct=3 / weightb=1 / open_gop=0 / weightp=2 / keyint=250 / keyint_min=25 / scenecut=40 / intra_refresh=0 / rc_lookahead=50 / rc=2pass / mbtree=1 / bitrate=2154 / ratetol=1.0 / qcomp=0.60 / qpmin=10 / qpmax=51 / qpstep=4 / cplxblur=20.0 / qblur=0.5 / ip_ratio=1.40 / aq=1:1.00
Default : Да
Forced : Нет
Аудио
Идентификатор : 2
Формат : AC-3
Формат/Информация : Audio Coding 3
Расширение режима : CM (complete main)
Параметр Endianness формата : Big
Идентификатор кодека : A_AC3
Продолжительность : 1 ч. 21 м.
Вид битрейта : Постоянный
Битрейт : 384 Кбит/сек
Каналы : 6 каналов
Расположение каналов : Front: L C R, Side: L R, LFE
Частота : 48,0 КГц
Битовая глубина : 16 бит
Метод сжатия : С потерями
Размер потока : 224 Мбайт (15%)
Default : Да
Forced : Нет
Скриншоты:
Время раздачи: 24/7 до 5 скачавших

[Цитировать]

Топик был перенесен из форума Новинки кинопроката в форум Ужасы
Henkok



Показать сообщения:    

Текущее время: 06-Дек 17:04

Часовой пояс: UTC + 3


Вы не можете начинать темы
Вы не можете отвечать на сообщения
Вы не можете редактировать свои сообщения
Вы не можете удалять свои сообщения
Вы не можете голосовать в опросах
Вы не можете прикреплять файлы к сообщениям
Вы не можете скачивать файлы

!ВНИМАНИЕ!
Сайт не предоставляет электронные версии произведений, а занимается лишь коллекционированием и каталогизацией ссылок, присылаемых и публикуемых на форуме нашими читателями. Если вы являетесь правообладателем какого-либо представленного материала и не желаете, чтобы ссылка на него находилась в нашем каталоге, свяжитесь с нами, и мы незамедлительно удалим ее. Файлы для обмена на трекере предоставлены пользователями сайта, и администрация не несет ответственности за их содержание. Просьба не заливать файлы, защищенные авторскими правами, а также файлы нелегального содержания!