[ Сегодня идет свободное скачивание без начисления Download ]


Статистика раздачи
Нет
 
   
 
Top  
 
 
-Апартаменты 1303 / Apartment 1303 3D (2012) DVDRip- Русское название: Апартаменты 1303
Оригинальное название: Apartment 1303 3D
Год выпуска: 2012
Производство: США, Канада, 1303 Productions, Monte Cristo Entertainment, MonteCristo Pictures
Жанр: Ужасы, триллер
Перевод: Дублированный [лицензия]
Субтитры: Отсутствуют-Режиссер: Мишель Таверна
Сценарий: Мишель Таверна, Кеи Оиши
Актеры: Миша Бартон, Ребекка Де Морнэй, Джулианна Мишель, Кори Севьер, Джон Дил, Джиллиан Олтмэн, Кэтерин Клилэнд, Кэтлин Мэкки, Джессика Малька, Гордон Мастен-Описание фильма:
В этой квартире всегда рады новым жильцам. Но никто не знает о легенде проклятия, которое здесь обитает. Говорят в апартаментах N1303, живут призраки матери и дочери, погибшие насильственной смертью. Не найдя покоя, духи мертвых жаждят отомстить своим убийцам. Каждый, кто переступает порог комнаты ужаса, становится их заложником. И еще никому не удалось вырваться из плена смерти…- -Дата мировой премьеры: 6 декабря 2012
Дата российской премьеры: 6 декабря 2012, «Люксор» 3D
Дата выхода DVD релиза: 21 января 2013, «Новый Диск»-Продолжительность: 01:21:39
Качество видео: DVDRip-Видеокодек: Xvid
Битрейт видео: 999 Кбит/сек
Размер кадра: 720x304
Аудиокодек: MP3 (2 ch)
Битрейт аудио: 192 Кбит/сек

MediaInfo

Общее
Полное имя : D:\Торрент раздача\Apartamenty.1303.2012.D.DVDRip.avi
Формат : AVI
Формат/Информация : Audio Video Interleave
Размер файла : 701 Мбайт
Продолжительность : 1 ч. 21 м.
Общий поток : 1201 Кбит/сек
Название фильма : Apartamenty.1303.2012.D.DVDRip
Программа кодирования : VirtualDubMod 1.5.10.3 | www.virtualdub-fr.org || (build 2550/release)
Библиотека кодирования : VirtualDub build 32661/release
Формат оригинала/Имя : Movie
Видео
Идентификатор : 0
Формат : MPEG-4 Visual
Профиль формата : Advanced [email protected]
Параметр BVOP формата : 2
Параметр QPel формата : Нет
Параметр GMC формата : Без точки перехода
Параметр матрицы формата : Default (H.263)
Режим смешивания : Сжатый битовый поток
Идентификатор кодека : XVID
Идентификатор кодека/Подсказка : XviD
Продолжительность : 1 ч. 21 м.
Битрейт : 999 Кбит/сек
Ширина : 720 пикселей
Высота : 304 пикселя
Соотношение сторон : 2,35:1
Частота кадров : 25,000 кадров/сек
Цветовое пространство : YUV
Субдискретизация насыщенности : 4:2:0
Битовая глубина : 8 бит
Тип развёртки : Прогрессивная
Метод сжатия : С потерями
Бит/(Пиксели*Кадры) : 0.183
Размер потока : 584 Мбайт (83%)
Библиотека кодирования : XviD 64
Аудио
Идентификатор : 1
Формат : MPEG Audio
Версия формата : Version 1
Профиль формата : Layer 3
Режим : Joint stereo
Идентификатор кодека : 55
Идентификатор кодека/Подсказка : MP3
Продолжительность : 1 ч. 21 м.
Вид битрейта : Постоянный
Битрейт : 192 Кбит/сек
Каналы : 2 канала
Частота : 48,0 КГц
Метод сжатия : С потерями
Размер потока : 112 Мбайт (16%)
Выравнивание : Разделение по промежуткам
Продолжительность промежутка : 40 мс. (1,00 видеокадр)
Время предзагрузки промежутка : 500 мс.
Скриншоты:
Время раздачи: 24/7 до 5 скачавших

[Цитировать]

Топик был перенесен из форума Новинки кинопроката в форум Ужасы
Henkok



Показать сообщения:    

Текущее время: 04-Дек 19:19

Часовой пояс: UTC + 3


Вы не можете начинать темы
Вы не можете отвечать на сообщения
Вы не можете редактировать свои сообщения
Вы не можете удалять свои сообщения
Вы не можете голосовать в опросах
Вы не можете прикреплять файлы к сообщениям
Вы не можете скачивать файлы

!ВНИМАНИЕ!
Сайт не предоставляет электронные версии произведений, а занимается лишь коллекционированием и каталогизацией ссылок, присылаемых и публикуемых на форуме нашими читателями. Если вы являетесь правообладателем какого-либо представленного материала и не желаете, чтобы ссылка на него находилась в нашем каталоге, свяжитесь с нами, и мы незамедлительно удалим ее. Файлы для обмена на трекере предоставлены пользователями сайта, и администрация не несет ответственности за их содержание. Просьба не заливать файлы, защищенные авторскими правами, а также файлы нелегального содержания!