[ Сегодня идет свободное скачивание без начисления Download ]


Статистика раздачи
Нет
 
   
 
Top  
 
 
-Бен 10: Крушение пришельцев / Ben 10: Destroy All Aliens (2012) HDTVRip- Русское название: Бен 10: Крушение пришельцев
Оригинальное название: Ben 10: Destroy All Aliens
Год выпуска: 2012
Жанр: Мультфильм, Фантастика, Боевик, Приключения, Семейный
Описание:
Десятилетний Бен Теннисон возвращается домой с летних каникул и в его обычной жизни происходит полная неразбериха. Его отчитывает учитель, пристают хулиганы, наказывают родители. Плюс ко всему родители не разрешают Бену поехать с дедушкой Максом в долгожданную поездку загород. Бен сбегает от всех проблем в самый дальний уголок галактики и принимает участие в военной программе Тотального погружения в Пришельцев. Бена отправляют обратно на землю теперь в облике пришельца…-Режиссер: Виктор Кук
Персонажи: Ди Брэдли Бейкер, Пол Айдинг, Дэйв Фенной, Роберт Дэвид Холл, Richard Hovitz, Бет Литтлфорд, Ричард МакГонагл, Дон МакМанус, Дуайт Шульц, Мэган Смит
Дата мировой премьеры: 11 марта 2012
Продолжительность: 01:09:04
Перевод: Дублированный- -Видеокодек: MPEG-4 AVC/H.264
Битрейт видео: ~11,0 Мбит/сек
Размер кадра: 1920x1080
Качество видео: HDTVRip
Аудио №1: AC3 2.0 192 kbps - Русский
Аудио №2: AC3 5.1 448 kbps - Английский

Media info:

Общее
Уникальный идентификатор : 247234434527158185485235886720363576154 (0xB9FF9EBD2A981F7AA5883ED26694BB5A)
Полное имя : H:\my films\BEN10_DEST_ALLENS_3D.mkv
Формат : Matroska
Версия формата : Version 4 / Version 2
Размер файла : 5,72 Гбайт
Продолжительность : 1 ч. 9 м.
Общий поток : 11,8 Мбит/сек
Название фильма : BEN10_DEST_ALLENS_3D
Дата кодирования : UTC 2013-02-05 14:41:21
Программа кодирования : mkvmerge v6.0.0 ('Coming Up For Air') built on Jan 20 2013 09:52:00
Библиотека кодирования : libebml v1.3.0 + libmatroska v1.4.0
Видео
Идентификатор : 1
Формат : AVC
Формат/Информация : Advanced Video Codec
Профиль формата : [email protected]
Параметр CABAC формата : Да
Параметр ReFrames формата : 4 кадра
Идентификатор кодека : V_MPEG4/ISO/AVC
Продолжительность : 1 ч. 9 м.
Битрейт : 11,0 Мбит/сек
Ширина : 1920 пикселей
Высота : 1080 пикселей
Соотношение сторон : 16:9
Режим частоты кадров : Постоянный
Частота кадров : 23,976 кадра/сек
Цветовое пространство : YUV
Субдискретизация насыщенности : 4:2:0
Битовая глубина : 8 бит
Тип развёртки : Прогрессивная
Бит/(Пиксели*Кадры) : 0.221
Размер потока : 5,29 Гбайт (93%)
Библиотека кодирования : x264 core 120 r2120 0c7dab9
Настройки программы : cabac=1 / ref=4 / deblock=1:-3:-3 / analyse=0x3:0x113 / me=umh / subme=9 / psy=1 / psy_rd=1.00:0.15 / mixed_ref=1 / me_range=16 / chroma_me=1 / trellis=1 / 8x8dct=1 / cqm=0 / deadzone=21,11 / fast_pskip=1 / chroma_qp_offset=-3 / threads=18 / sliced_threads=0 / nr=0 / decimate=1 / interlaced=0 / bluray_compat=0 / constrained_intra=0 / bframes=3 / b_pyramid=2 / b_adapt=1 / b_bias=0 / direct=3 / weightb=1 / open_gop=0 / weightp=2 / keyint=250 / keyint_min=23 / scenecut=40 / intra_refresh=0 / rc_lookahead=40 / rc=crf / mbtree=1 / crf=16.0 / qcomp=0.60 / qpmin=10 / qpmax=69 / qpstep=4 / ip_ratio=1.40 / aq=1:1.00
Язык : English
Default : Нет
Forced : Нет
Аудио #1
Идентификатор : 2
Формат : AC-3
Формат/Информация : Audio Coding 3
Расширение режима : CM (complete main)
Параметр Endianness формата : Big
Идентификатор кодека : A_AC3
Продолжительность : 1 ч. 9 м.
Вид битрейта : Постоянный
Битрейт : 192 Кбит/сек
Каналы : 2 канала
Расположение каналов : Front: L R
Частота : 48,0 КГц
Битовая глубина : 16 бит
Метод сжатия : С потерями
Размер потока : 94,9 Мбайт (2%)
Заголовок : DUB
Язык : Russian
Default : Да
Forced : Нет
Аудио #2
Идентификатор : 3
Формат : AC-3
Формат/Информация : Audio Coding 3
Расширение режима : CM (complete main)
Параметр Endianness формата : Big
Идентификатор кодека : A_AC3
Продолжительность : 1 ч. 9 м.
Вид битрейта : Постоянный
Битрейт : 448 Кбит/сек
Каналы : 6 каналов
Расположение каналов : Front: L C R, Side: L R, LFE
Частота : 48,0 КГц
Битовая глубина : 16 бит
Метод сжатия : С потерями
Размер потока : 221 Мбайт (4%)
Язык : English
Default : Нет
Forced : Нет
Проверено на встроенном плейере ТВ Samsung-D6500Скриншоты:

[Цитировать]



Показать сообщения:    

Текущее время: 05-Дек 03:34

Часовой пояс: UTC + 3


Вы не можете начинать темы
Вы не можете отвечать на сообщения
Вы не можете редактировать свои сообщения
Вы не можете удалять свои сообщения
Вы не можете голосовать в опросах
Вы не можете прикреплять файлы к сообщениям
Вы не можете скачивать файлы

!ВНИМАНИЕ!
Сайт не предоставляет электронные версии произведений, а занимается лишь коллекционированием и каталогизацией ссылок, присылаемых и публикуемых на форуме нашими читателями. Если вы являетесь правообладателем какого-либо представленного материала и не желаете, чтобы ссылка на него находилась в нашем каталоге, свяжитесь с нами, и мы незамедлительно удалим ее. Файлы для обмена на трекере предоставлены пользователями сайта, и администрация не несет ответственности за их содержание. Просьба не заливать файлы, защищенные авторскими правами, а также файлы нелегального содержания!