[ Сегодня идет свободное скачивание без начисления Download ]


Статистика раздачи
Нет
 
   
 
Top  
 
 
-Тайна красной планеты / Mars Needs Moms (2011) BDRip- Русское название: Тайна красной планеты
Оригинальное название: Mars Needs Moms
Год выпуска: 2011
Жанр: Мультфильм, Фантастика, Боевик, Комедия, Приключения, Семейный
Описание:
Есть мерзкую брокколи, выносить мусор, рано ложиться спать — кому вообще нужны мамы, заставляющие это делать? Так думал Майло, пока не обнаружил, что его маму похитили марсиане. Тут-то и оказалось, что ему предстоит отправиться на другую планету, чтобы найти маму и вернуть ее домой.-Режиссер: Саймон Уэллс
Персонажи: Сет Грин, Дэн Фоглер, Джоан Кьюсак, Элизабет Арнуа, Минди Стерлинг, Кевин Кахун, Том Эверетт Скотт, Жаки Барнбрук, Мэттью Хенерсон, Адам Дженнингс
Роли дубдировали: Диомид Виноградов, Анастасия Лапина, Жанна Агузарова
Продолжительность: 01:28:02
Перевод: Дублированный- -Видеокодек: MPEG-4 AVC/H.264
Битрейт видео: ~12,3 Мбит/сек
Размер кадра: 1920x1080
Качество видео: BDRip / За исходник спасибо:
Аудио №1: AC3 5.1 384 kbps - Русский
Аудио №2: AC3 5.1 384 kbps - Украинский
Аудио №3: AC3 5.1 640 kbps - Английский-Дата мировой премьеры: 9 марта 2011
Дата российской премьеры: 10 марта 2011, «WDSSPR»
Дата выхода DVD релиза: 21 июня 2011, «Уолт Дисней Компани СНГ»-

Media info:

Общее
Уникальный идентификатор : 188344028397349839202061392054898274277 (0x8DB1BD8BC088ADE49F8C3235A0862FE5)
Полное имя : H:\my films\MARS_NEEDS_MOMS_3D.mkv
Формат : Matroska
Версия формата : Version 4 / Version 2
Размер файла : 8,59 Гбайт
Продолжительность : 1 ч. 28 м.
Общий поток : 14,0 Мбит/сек
Название фильма : MARS_NEEDS_MOMS_3D_crop_over/under
Дата кодирования : UTC 2013-01-31 17:05:44
Программа кодирования : mkvmerge v6.0.0 ('Coming Up For Air') built on Jan 20 2013 09:52:00
Библиотека кодирования : libebml v1.3.0 + libmatroska v1.4.0
Видео
Идентификатор : 1
Формат : AVC
Формат/Информация : Advanced Video Codec
Профиль формата : High@L4.1
Параметр CABAC формата : Да
Параметр ReFrames формата : 4 кадра
Идентификатор кодека : V_MPEG4/ISO/AVC
Продолжительность : 1 ч. 28 м.
Битрейт : 12,3 Мбит/сек
Ширина : 1920 пикселей
Высота : 1080 пикселей
Соотношение сторон : 16:9
Режим частоты кадров : Постоянный
Частота кадров : 23,976 кадра/сек
Цветовое пространство : YUV
Субдискретизация насыщенности : 4:2:0
Битовая глубина : 8 бит
Тип развёртки : Прогрессивная
Бит/(Пиксели*Кадры) : 0.247
Размер потока : 7,55 Гбайт (88%)
Заголовок : rip by I/N
Библиотека кодирования : x264 core 128 r2216M 198a7ea
Настройки программы : cabac=1 / ref=4 / deblock=1:-3:-3 / analyse=0x3:0x133 / me=umh / subme=7 / psy=1 / psy_rd=1.00:0.10 / mixed_ref=1 / me_range=32 / chroma_me=1 / trellis=2 / 8x8dct=1 / cqm=1 / deadzone=21,11 / fast_pskip=1 / chroma_qp_offset=-3 / threads=4 / lookahead_threads=1 / sliced_threads=0 / nr=0 / decimate=1 / interlaced=0 / bluray_compat=0 / constrained_intra=0 / bframes=4 / b_pyramid=2 / b_adapt=2 / b_bias=0 / direct=2 / weightb=1 / open_gop=0 / weightp=2 / keyint=12 / keyint_min=2 / scenecut=60 / intra_refresh=0 / rc_lookahead=17 / rc=crf / mbtree=1 / crf=17.0 / qcomp=0.60 / qpmin=10 / qpmax=60 / qpstep=4 / vbv_maxrate=40000 / vbv_bufsize=30000 / crf_max=30.0 / nal_hrd=none / ip_ratio=1.40 / aq=1:0.70
Default : Да
Forced : Нет
Аудио #1
Идентификатор : 2
Формат : AC-3
Формат/Информация : Audio Coding 3
Расширение режима : CM (complete main)
Параметр Endianness формата : Big
Идентификатор кодека : A_AC3
Продолжительность : 1 ч. 28 м.
Вид битрейта : Постоянный
Битрейт : 384 Кбит/сек
Каналы : 6 каналов
Расположение каналов : Front: L C R, Side: L R, LFE
Частота : 48,0 КГц
Битовая глубина : 16 бит
Метод сжатия : С потерями
Размер потока : 242 Мбайт (3%)
Язык : Russian
Default : Да
Forced : Нет
Аудио #2
Идентификатор : 3
Формат : AC-3
Формат/Информация : Audio Coding 3
Расширение режима : CM (complete main)
Параметр Endianness формата : Big
Идентификатор кодека : A_AC3
Продолжительность : 1 ч. 28 м.
Вид битрейта : Постоянный
Битрейт : 384 Кбит/сек
Каналы : 6 каналов
Расположение каналов : Front: L C R, Side: L R, LFE
Частота : 48,0 КГц
Битовая глубина : 16 бит
Метод сжатия : С потерями
Размер потока : 242 Мбайт (3%)
Язык : Ukrainian
Default : Нет
Forced : Нет
Аудио #3
Идентификатор : 4
Формат : AC-3
Формат/Информация : Audio Coding 3
Расширение режима : CM (complete main)
Параметр Endianness формата : Big
Идентификатор кодека : A_AC3
Продолжительность : 1 ч. 28 м.
Вид битрейта : Постоянный
Битрейт : 640 Кбит/сек
Каналы : 6 каналов
Расположение каналов : Front: L C R, Side: L R, LFE
Частота : 48,0 КГц
Битовая глубина : 16 бит
Метод сжатия : С потерями
Размер потока : 403 Мбайт (5%)
Язык : English
Default : Нет
Forced : Нет
Меню
00:00:00.000 : en:(01)00:00:00:000
00:04:04.577 : en:(02)00:04:04:577
00:09:15.012 : en:(03)00:09:15:012
00:13:56.836 : en:(04)00:13:56:836
00:19:13.402 : en:(05)00:19:13:402
00:28:13.900 : en:(06)00:28:13:900
00:34:29.776 : en:(07)00:34:29:776
00:40:19.250 : en:(08)00:40:19:250
00:47:15.624 : en:(09)00:47:15:624
00:56:49.781 : en:(10)00:56:49:781
01:09:03.347 : en:(11)01:09:03:347
01:21:25.422 : en:(12)01:21:25:422
01:28:02.568 : en:(13)01:28:02:568
Проверено на встроенном плейере ТВ Samsung-D6500Скриншоты:

Особенности релиза:

Справа и слева у видеоряда обрезано по 248р, что дает возможность просмотра на полный экран (без черных полос) на телевизорах с соотношением сторон 16:9 без изменения пропорций. На мой взгляд плюсы данных рипов- это более глубокое восприятие 3D-эффектов (конечно там где они есть) К минусам отнесу- вынужденное обрезание кадра по бокам. Так-что господа- выбор за вами! Всем приятного просмотра

[Цитировать]



Показать сообщения:    

Текущее время: 09-Дек 22:22

Часовой пояс: UTC + 3


Вы не можете начинать темы
Вы не можете отвечать на сообщения
Вы не можете редактировать свои сообщения
Вы не можете удалять свои сообщения
Вы не можете голосовать в опросах
Вы не можете прикреплять файлы к сообщениям
Вы не можете скачивать файлы

!ВНИМАНИЕ!
Сайт не предоставляет электронные версии произведений, а занимается лишь коллекционированием и каталогизацией ссылок, присылаемых и публикуемых на форуме нашими читателями. Если вы являетесь правообладателем какого-либо представленного материала и не желаете, чтобы ссылка на него находилась в нашем каталоге, свяжитесь с нами, и мы незамедлительно удалим ее. Файлы для обмена на трекере предоставлены пользователями сайта, и администрация не несет ответственности за их содержание. Просьба не заливать файлы, защищенные авторскими правами, а также файлы нелегального содержания!