[ Сегодня идет свободное скачивание без начисления Download ]


Статистика раздачи
Нет
 
   
 
Top  
 
 
-Франкенвини / Frankenweenie (2012) BDRip- Русское название: Франкенвини
Оригинальное название: Frankenweenie
Год выпуска: 2012
Жанр: Мультфильм, Ужасы, Фантастика, Комедия, Семейный
Производство: США / Walt Disney Pictures, Tim Burton Animation Co., Tim Burton Productions
Описание:
Обожаемый мальчиком Виктором пес Спарки погибает в результате несчастного случая. Мальчик, не желая мириться с потерей друга, призывает науку на помощь и…возвращает питомца к жизни! Казалось бы, все не так уж плохо, но когда Спарки сбегает от Виктора, его друзья, родители, учителя и жители городка узнают, что возвращение к жизни домашнего питомца может повлечь за собой неожиданные и даже ужасные последствия!
Режиссер: Тим Бёртон
Персонажи: Чарли Тахэн, Кэтрин О’Хара, Мартин Шорт, Мартин Ландау, Вайнона Райдер, Аттикус Шаффер, Роберт Капрон, Кристофер Ли, Кончата Феррелл, Джеймс Хироюки Лиао
Продолжительность: 01:26:56
Перевод: Дублированный, Одноголосый закадровый
Язык субтитров: Русский (Captions), Русский, Украинский (Captions), Украинский, Английский, Английский (SDH)

Видеокодек: MPEG-4 AVC/H.264
Битрейт видео: ~10460 kbps
Размер кадра: 1920 x 1040
Качество видео: BDRip
Аудиокодек: AC3 5.1 / DTS
Аудио 1: Русский, AC3 5.1, 640 kbps, 48 kHz (Дубляж, BD EUR)
Аудио 2: Русский, DTS 5.1, 1510 kbps, 48 kHz (AVO, Гаврилов)
Аудио 3: Русский, DTS 5.1, 1510 kbps, 48 kHz (AVO, Карповский)
Аудио 4: Украинский, AC3 5.1, 640 kbps, 48 kHz (Дубляж, BD EUR)
Аудио 5: Английский, DTS 5.1, 1510 kbps, 48 kHz (Оригинал)-Сэмпл: Ссылка-

MediaInfo:

Общее
Уникальный идентификатор : 214877915118455692296749126512407475482 (0xA1A7FB2A1E19AA73B595F4803AFFF51A)
Полное имя : D:\Films\Frankenweenie.2012.3D.BDRip.HSBS.1080p.CHD3D.mkv
Формат : Matroska
Версия формата : Version 2
Размер файла : 9,88 Гбайт
Продолжительность : 1 ч. 26 м.
Общий поток : 16,3 Мбит/сек
Дата кодирования : UTC 2013-01-29 15:00:00
Программа кодирования : mkvmerge v5.2.0 ('I can't explain') built on Dec 18 2011 18:12:03
Библиотека кодирования : libebml v1.2.3 + libmatroska v1.3.0
Видео
Идентификатор : 1
Формат : AVC
Формат/Информация : Advanced Video Codec
Профиль формата : High@L4.1
Параметр CABAC формата : Да
Параметр ReFrames формата : 3 кадра
Идентификатор кодека : V_MPEG4/ISO/AVC
Продолжительность : 1 ч. 26 м.
Битрейт : 10,1 Мбит/сек
Ширина : 1920 пикселей
Высота : 1040 пикселей
Соотношение сторон : 16:9
Частота кадров : 23,976 кадра/сек
Цветовое пространство : YUV
Субдискретизация насыщенности : 4:2:0
Битовая глубина : 8 бит
Тип развёртки : Прогрессивная
Бит/(Пиксели*Кадры) : 0.212
Размер потока : 6,16 Гбайт (62%)
Библиотека кодирования : x264 core
Язык : English
Default : Да
Forced : Нет
Основные цвета : BT.709-5, BT.1361, IEC 61966-2-4, SMPTE RP177
Характеристики трансфера : BT.709-5, BT.1361
Коэффициенты матрицы : BT.709-5, BT.1361, IEC 61966-2-4 709, SMPTE RP177
Аудио #1
Идентификатор : 2
Формат : AC-3
Формат/Информация : Audio Coding 3
Расширение режима : CM (complete main)
Идентификатор кодека : A_AC3
Продолжительность : 1 ч. 26 м.
Вид битрейта : Постоянный
Битрейт : 640 Кбит/сек
Каналы : 6 каналов
Расположение каналов : Front: L C R, Side: L R, LFE
Частота : 48,0 КГц
Битовая глубина : 16 бит
Метод сжатия : С потерями
Размер потока : 398 Мбайт (4%)
Заголовок : DUB BD EUR
Язык : Russian
Default : Да
Forced : Нет
Аудио #2
Идентификатор : 3
Формат : DTS
Формат/Информация : Digital Theater Systems
Идентификатор кодека : A_DTS
Продолжительность : 1 ч. 26 м.
Вид битрейта : Постоянный
Битрейт : 1510 Кбит/сек
Каналы : 6 каналов
Расположение каналов : Front: L C R, Side: L R, LFE
Частота : 48,0 КГц
Битовая глубина : 24 бит
Метод сжатия : С потерями
Размер потока : 939 Мбайт (9%)
Заголовок : AVO Гаврилов
Язык : Russian
Default : Нет
Forced : Нет
Аудио #3
Идентификатор : 4
Формат : DTS
Формат/Информация : Digital Theater Systems
Идентификатор кодека : A_DTS
Продолжительность : 1 ч. 26 м.
Вид битрейта : Постоянный
Битрейт : 1510 Кбит/сек
Каналы : 6 каналов
Расположение каналов : Front: L C R, Side: L R, LFE
Частота : 48,0 КГц
Битовая глубина : 24 бит
Метод сжатия : С потерями
Размер потока : 939 Мбайт (9%)
Заголовок : AVO Карповский
Язык : Russian
Default : Нет
Forced : Нет
Аудио #4
Идентификатор : 5
Формат : AC-3
Формат/Информация : Audio Coding 3
Расширение режима : CM (complete main)
Идентификатор кодека : A_AC3
Продолжительность : 1 ч. 26 м.
Вид битрейта : Постоянный
Битрейт : 640 Кбит/сек
Каналы : 6 каналов
Расположение каналов : Front: L C R, Side: L R, LFE
Частота : 48,0 КГц
Битовая глубина : 16 бит
Метод сжатия : С потерями
Размер потока : 398 Мбайт (4%)
Заголовок : DUB BD EUR
Язык : Ukrainian
Default : Нет
Forced : Нет
Аудио #5
Идентификатор : 6
Формат : DTS
Формат/Информация : Digital Theater Systems
Идентификатор кодека : A_DTS
Продолжительность : 1 ч. 26 м.
Вид битрейта : Постоянный
Битрейт : 1510 Кбит/сек
Каналы : 6 каналов
Расположение каналов : Front: L C R, Side: L R, LFE
Частота : 48,0 КГц
Битовая глубина : 24 бит
Метод сжатия : С потерями
Размер потока : 939 Мбайт (9%)
Язык : English
Default : Нет
Forced : Нет
Текст #1
Идентификатор : 7
Формат : UTF-8
Идентификатор кодека : S_TEXT/UTF8
Идентификатор кодека/Информация : UTF-8 Plain Text
Заголовок : Captions
Язык : Russian
Default : Да
Forced : Нет
Текст #2
Идентификатор : 8
Формат : UTF-8
Идентификатор кодека : S_TEXT/UTF8
Идентификатор кодека/Информация : UTF-8 Plain Text
Заголовок : FULL
Язык : Russian
Default : Нет
Forced : Нет
Текст #3
Идентификатор : 9
Формат : UTF-8
Идентификатор кодека : S_TEXT/UTF8
Идентификатор кодека/Информация : UTF-8 Plain Text
Заголовок : Captions
Язык : Ukrainian
Default : Нет
Forced : Нет
Текст #4
Идентификатор : 10
Формат : UTF-8
Идентификатор кодека : S_TEXT/UTF8
Идентификатор кодека/Информация : UTF-8 Plain Text
Заголовок : Full
Язык : Ukrainian
Default : Нет
Forced : Нет
Текст #5
Идентификатор : 11
Формат : UTF-8
Идентификатор кодека : S_TEXT/UTF8
Идентификатор кодека/Информация : UTF-8 Plain Text
Язык : English
Default : Нет
Forced : Нет
Текст #6
Идентификатор : 12
Формат : UTF-8
Идентификатор кодека : S_TEXT/UTF8
Идентификатор кодека/Информация : UTF-8 Plain Text
Заголовок : SDH
Язык : English
Default : Нет
Forced : Нет
Меню
00:00:00.000 : en:(01)00:00:00:000
00:05:25.325 : en:(02)00:05:25:325
00:11:17.218 : en:(03)00:11:17:218
00:15:32.014 : en:(04)00:15:32:014
00:19:28.292 : en:(05)00:19:28:292
00:26:09.317 : en:(06)00:26:09:317
00:31:59.792 : en:(07)00:31:59:792
00:35:52.525 : en:(08)00:35:52:525
00:41:12.178 : en:(09)00:41:12:178
00:46:44.384 : en:(10)00:46:44:384
00:50:13.343 : en:(11)00:50:13:343
00:55:24.863 : en:(12)00:55:24:863
01:03:47.198 : en:(13)01:03:47:198
01:09:25.995 : en:(14)01:09:25:995
01:16:44.933 : en:(15)01:16:44:933
01:20:08.804 : en:(16)01:20:08:804
01:26:56.628 : en:(17)01:26:56:628
-Скриншоты:

[Цитировать]



Показать сообщения:    

Текущее время: 08-Дек 10:59

Часовой пояс: UTC + 3


Вы не можете начинать темы
Вы не можете отвечать на сообщения
Вы не можете редактировать свои сообщения
Вы не можете удалять свои сообщения
Вы не можете голосовать в опросах
Вы не можете прикреплять файлы к сообщениям
Вы не можете скачивать файлы

!ВНИМАНИЕ!
Сайт не предоставляет электронные версии произведений, а занимается лишь коллекционированием и каталогизацией ссылок, присылаемых и публикуемых на форуме нашими читателями. Если вы являетесь правообладателем какого-либо представленного материала и не желаете, чтобы ссылка на него находилась в нашем каталоге, свяжитесь с нами, и мы незамедлительно удалим ее. Файлы для обмена на трекере предоставлены пользователями сайта, и администрация не несет ответственности за их содержание. Просьба не заливать файлы, защищенные авторскими правами, а также файлы нелегального содержания!